SHARE
TWEET

No Country for Old Men BluRay HEVC

dirtyharrys Jun 6th, 2019 (edited) 69 Never
Not a member of Pastebin yet? Sign Up, it unlocks many cool features!
  1. General
  2. Unique ID                   : 235093270025773631805777694640442447498 (0xB0DD511CDCC5C5E5594E15A81A20168A)
  3. Complete name               : E:\No.Country.For.Old Men.2007.BuRay.1080p.HEVC.x265\No.Country.For.Old Men.2007.BuRay.1080p.HEVC.x265.mkv
  4. Format                      : Matroska
  5. Format version              : Version 4
  6. File size                   : 5.61 GiB
  7. Duration                    : 2 h 2 min
  8. Overall bit rate            : 6 549 kb/s
  9. Movie name                  : No Country for Old Men BluRay / No Country for Old Men BluRay
  10. Encoded date                : UTC 2019-06-01 08:18:41
  11. Writing application         : mkvmerge v30.1.0 ('Forever And More') 32-bit
  12. Writing library             : libebml v1.3.6 + libmatroska v1.4.9
  13. Copyright                   : Movies HDs 2019
  14. ARTIST                      : HarshLearner
  15.  
  16. Video
  17. ID                          : 1
  18. Format                      : HEVC
  19. Format/Info                 : High Efficiency Video Coding
  20. Format profile              : Main 10@L4@Main
  21. Codec ID                    : V_MPEGH/ISO/HEVC
  22. Duration                    : 2 h 2 min
  23. Bit rate                    : 5 390 kb/s
  24. Width                       : 1 920 pixels
  25. Height                      : 1 080 pixels
  26. Display aspect ratio        : 16:9
  27. Frame rate mode             : Constant
  28. Frame rate                  : 23.976 (24000/1001) FPS
  29. Color space                 : YUV
  30. Chroma subsampling          : 4:2:0
  31. Bit depth                   : 10 bits
  32. Bits/(Pixel*Frame)          : 0.108
  33. Stream size                 : 4.60 GiB (82%)
  34. Title                       : No Country for Old Men
  35. Writing library             : x265 2.1+69-c97c64ab8b8e:[Windows][GCC 6.2.0][64 bit] 10bit
  36. Encoding settings           : cpuid=1173503 / frame-threads=2 / numa-pools=4 / wpp / no-pmode / no-pme / no-psnr / no-ssim / log-level=2 / input-csp=1 / input-res=1920x1080 / interlace=0 / total-frames=175753 / level-idc=0 / high-tier=1 / uhd-bd=0 / ref=4 / no-allow-non-conformance / no-repeat-headers / annexb / no-aud / no-hrd / info / hash=0 / no-temporal-layers / open-gop / min-keyint=23 / keyint=250 / bframes=4 / b-adapt=2 / b-pyramid / bframe-bias=0 / rc-lookahead=25 / lookahead-slices=4 / scenecut=40 / no-intra-refresh / ctu=64 / min-cu-size=8 / rect / no-amp / max-tu-size=32 / tu-inter-depth=1 / tu-intra-depth=1 / limit-tu=0 / rdoq-level=2 / signhide / no-tskip / nr-intra=0 / nr-inter=0 / no-constrained-intra / strong-intra-smoothing / max-merge=3 / limit-refs=3 / limit-modes / me=3 / subme=3 / merange=57 / temporal-mvp / weightp / no-weightb / no-analyze-src-pics / deblock=0:0 / sao / no-sao-non-deblock / rd=4 / no-early-skip / rskip / no-fast-intra / no-tskip-fast / no-cu-lossless / no-b-intra / rdpenalty=0 / psy-rd=2.00 / psy-rdoq=1.00 / no-rd-refine / analysis-mode=0 / no-lossless / cbqpoffs=0 / crqpoffs=0 / rc=crf / crf=18.0 / qcomp=0.60 / qpstep=4 / stats-write=0 / stats-read=0 / ipratio=1.40 / pbratio=1.30 / aq-mode=1 / aq-strength=1.00 / cutree / zone-count=0 / no-strict-cbr / qg-size=32 / no-rc-grain / qpmax=69 / qpmin=0 / sar=0 / overscan=0 / videoformat=5 / range=0 / colorprim=2 / transfer=2 / colormatrix=2 / chromaloc=0 / display-window=0 / max-cll=0,0 / min-luma=0 / max-luma=1023 / log2-max-poc-lsb=8 / vui-timing-info / vui-hrd-info / slices=1 / opt-qp-pps / opt-ref-list-length-pps / no-multi-pass-opt-rps / scenecut-bias=0.05
  37. Default                     : Yes
  38. Forced                      : No
  39.  
  40. Audio #1
  41. ID                          : 2
  42. Format                      : AC-3
  43. Format/Info                 : Audio Coding 3
  44. Commercial name             : Dolby Digital
  45. Codec ID                    : A_AC3
  46. Duration                    : 2 h 2 min
  47. Bit rate mode               : Constant
  48. Bit rate                    : 640 kb/s
  49. Channel(s)                  : 6 channels
  50. Channel layout              : L R C LFE Ls Rs
  51. Sampling rate               : 48.0 kHz
  52. Frame rate                  : 31.250 FPS (1536 SPF)
  53. Bit depth                   : 16 bits
  54. Compression mode            : Lossy
  55. Stream size                 : 559 MiB (10%)
  56. Language                    : English
  57. Service kind                : Complete Main
  58. Default                     : No
  59. Forced                      : No
  60.  
  61. Audio #2
  62. ID                          : 3
  63. Format                      : AC-3
  64. Format/Info                 : Audio Coding 3
  65. Commercial name             : Dolby Digital
  66. Codec ID                    : A_AC3
  67. Duration                    : 2 h 2 min
  68. Bit rate mode               : Constant
  69. Bit rate                    : 384 kb/s
  70. Channel(s)                  : 6 channels
  71. Channel layout              : L R C LFE Ls Rs
  72. Sampling rate               : 48.0 kHz
  73. Frame rate                  : 31.250 FPS (1536 SPF)
  74. Bit depth                   : 16 bits
  75. Compression mode            : Lossy
  76. Stream size                 : 337 MiB (6%)
  77. Title                       : Latin Spanish
  78. Language                    : Spanish
  79. Service kind                : Complete Main
  80. Default                     : Yes
  81. Forced                      : Yes
  82.  
  83. Text #1
  84. ID                          : 4
  85. Format                      : PGS
  86. Muxing mode                 : zlib
  87. Codec ID                    : S_HDMV/PGS
  88. Codec ID/Info               : Picture based subtitle format used on BDs/HD-DVDs
  89. Duration                    : 1 h 56 min
  90. Bit rate                    : 472 kb/s
  91. Count of elements           : 23886
  92. Stream size                 : 393 MiB (7%)
  93. Language                    : English
  94. Default                     : No
  95. Forced                      : No
  96.  
  97. Text #2
  98. ID                          : 5
  99. Format                      : UTF-8
  100. Codec ID                    : S_TEXT/UTF8
  101. Codec ID/Info               : UTF-8 Plain Text
  102. Duration                    : 1 h 55 min
  103. Bit rate                    : 42 b/s
  104. Count of elements           : 906
  105. Stream size                 : 35.8 KiB (0%)
  106. Language                    : English
  107. Default                     : No
  108. Forced                      : No
  109.  
  110. Text #3
  111. ID                          : 6
  112. Format                      : UTF-8
  113. Codec ID                    : S_TEXT/UTF8
  114. Codec ID/Info               : UTF-8 Plain Text
  115. Duration                    : 1 h 55 min
  116. Bit rate                    : 45 b/s
  117. Count of elements           : 1029
  118. Stream size                 : 38.4 KiB (0%)
  119. Title                       : English SDH
  120. Language                    : English
  121. Default                     : No
  122. Forced                      : No
  123.  
  124. Text #4
  125. ID                          : 7
  126. Format                      : UTF-8
  127. Codec ID                    : S_TEXT/UTF8
  128. Codec ID/Info               : UTF-8 Plain Text
  129. Duration                    : 1 h 55 min
  130. Bit rate                    : 40 b/s
  131. Count of elements           : 951
  132. Stream size                 : 34.3 KiB (0%)
  133. Language                    : Spanish
  134. Default                     : Yes
  135. Forced                      : Yes
  136.  
  137. Menu
  138. 00:00:00.000                : en:Chapter 01
  139. 00:04:05.453                : en:Chapter 02
  140. 00:13:41.904                : en:Chapter 03
  141. 00:20:50.415                : en:Chapter 04
  142. 00:27:52.837                : en:Chapter 05
  143. 00:36:58.382                : en:Chapter 06
  144. 00:41:52.426                : en:Chapter 07
  145. 00:52:17.050                : en:Chapter 08
  146. 01:04:59.312                : en:Chapter 09
  147. 01:13:08.801                : en:Chapter 10
  148. 01:20:05.801                : en:Chapter 11
  149. 01:27:35.875                : en:Chapter 12
  150. 01:34:35.127                : en:Chapter 13
  151. 01:42:20.634                : en:Chapter 14
  152. 01:47:22.644                : en:Chapter 15
  153. 01:56:32.652                : en:Chapter 16
RAW Paste Data
We use cookies for various purposes including analytics. By continuing to use Pastebin, you agree to our use of cookies as described in the Cookies Policy. OK, I Understand
 
Top