SHARE
TWEET

Cold Pursuit BluRay 720p

dirtyharrys Apr 28th, 2019 (edited) 73 Never
Not a member of Pastebin yet? Sign Up, it unlocks many cool features!
  1. General
  2. Unique ID                   : 76020680384031683635412783669721272420 (0x39310CEBE4694361DA23C6FD2BBD9064)
  3. Complete name               : E:\QlJSQ29sZFB1cnN1aXQ.mkv
  4. Format                      : Matroska
  5. Format version              : Version 4
  6. File size                   : 1.99 GiB
  7. Duration                    : 1 h 59 min
  8. Overall bit rate            : 2 397 kb/s
  9. Movie name                  : Cold Pursuit BR-RIP / Cold Pursuit BR-RIP
  10. Encoded date                : UTC 2019-05-06 07:05:47
  11. Writing application         : mkvmerge v30.1.0 ('Forever And More') 32-bit
  12. Writing library             : libebml v1.3.6 + libmatroska v1.4.9
  13. Copyright                   : Movies HDs 2019
  14. ARTIST                      : HarshLearner
  15.  
  16. Video
  17. ID                          : 1
  18. Format                      : AVC
  19. Format/Info                 : Advanced Video Codec
  20. Format profile              : High@L4.1
  21. Format settings             : CABAC / 4 Ref Frames
  22. Format settings, CABAC      : Yes
  23. Format settings, ReFrames   : 4 frames
  24. Codec ID                    : V_MPEG4/ISO/AVC
  25. Duration                    : 1 h 59 min
  26. Bit rate                    : 1 500 kb/s
  27. Width                       : 1 280 pixels
  28. Height                      : 536 pixels
  29. Display aspect ratio        : 2.40:1
  30. Frame rate mode             : Constant
  31. Frame rate                  : 23.976 (23976/1000) FPS
  32. Color space                 : YUV
  33. Chroma subsampling          : 4:2:0
  34. Bit depth                   : 8 bits
  35. Scan type                   : Progressive
  36. Bits/(Pixel*Frame)          : 0.091
  37. Stream size                 : 1.25 GiB (63%)
  38. Title                       : Cold Pursuit
  39. Writing library             : x264 core 152 r2851M ba24899
  40. Default                     : Yes
  41. Forced                      : No
  42.  
  43. Audio #1
  44. ID                          : 2
  45. Format                      : AC-3
  46. Format/Info                 : Audio Coding 3
  47. Commercial name             : Dolby Digital
  48. Codec ID                    : A_AC3
  49. Duration                    : 1 h 59 min
  50. Bit rate mode               : Constant
  51. Bit rate                    : 448 kb/s
  52. Channel(s)                  : 6 channels
  53. Channel layout              : L R C LFE Ls Rs
  54. Sampling rate               : 48.0 kHz
  55. Frame rate                  : 31.250 FPS (1536 SPF)
  56. Bit depth                   : 16 bits
  57. Compression mode            : Lossy
  58. Stream size                 : 381 MiB (19%)
  59. Language                    : English
  60. Service kind                : Complete Main
  61. Default                     : No
  62. Forced                      : No
  63.  
  64. Audio #2
  65. ID                          : 3
  66. Format                      : AC-3
  67. Format/Info                 : Audio Coding 3
  68. Commercial name             : Dolby Digital
  69. Codec ID                    : A_AC3
  70. Duration                    : 1 h 59 min
  71. Bit rate mode               : Constant
  72. Bit rate                    : 448 kb/s
  73. Channel(s)                  : 6 channels
  74. Channel layout              : L R C LFE Ls Rs
  75. Sampling rate               : 48.0 kHz
  76. Frame rate                  : 31.250 FPS (1536 SPF)
  77. Bit depth                   : 16 bits
  78. Compression mode            : Lossy
  79. Stream size                 : 381 MiB (19%)
  80. Language                    : Spanish
  81. Service kind                : Complete Main
  82. Default                     : Yes
  83. Forced                      : Yes
  84.  
  85. Text #1
  86. ID                          : 4
  87. Format                      : UTF-8
  88. Codec ID                    : S_TEXT/UTF8
  89. Codec ID/Info               : UTF-8 Plain Text
  90. Duration                    : 1 h 45 min
  91. Bit rate                    : 42 b/s
  92. Count of elements           : 1032
  93. Stream size                 : 32.4 KiB (0%)
  94. Language                    : English
  95. Default                     : No
  96. Forced                      : No
  97.  
  98. Text #2
  99. ID                          : 5
  100. Format                      : UTF-8
  101. Codec ID                    : S_TEXT/UTF8
  102. Codec ID/Info               : UTF-8 Plain Text
  103. Duration                    : 1 h 48 min
  104. Bit rate                    : 45 b/s
  105. Count of elements           : 1025
  106. Stream size                 : 36.0 KiB (0%)
  107. Language                    : Spanish
  108. Default                     : Yes
  109. Forced                      : Yes
  110.  
  111. Menu
  112. 00:00:00.000                : :Chapter 01
  113. 00:07:26.946                : :Chapter 02
  114. 00:13:19.257                : :Chapter 03
  115. 00:21:35.211                : :Chapter 04
  116. 00:29:35.649                : :Chapter 05
  117. 00:38:18.880                : :Chapter 06
  118. 00:45:11.876                : :Chapter 07
  119. 00:53:08.310                : :Chapter 08
  120. 01:01:23.513                : :Chapter 09
  121. 01:05:46.359                : :Chapter 10
  122. 01:14:04.857                : :Chapter 11
  123. 01:22:21.186                : :Chapter 12
  124. 01:31:40.954                : :Chapter 13
  125. 01:38:46.879                : :Chapter 14
  126. 01:45:20.939                : :Chapter 15
  127. 01:47:43.540                : :Chapter 16
RAW Paste Data
We use cookies for various purposes including analytics. By continuing to use Pastebin, you agree to our use of cookies as described in the Cookies Policy. OK, I Understand
 
Top