HYBRID_BEING

[GJM] Seiren - 02 [E76B7905].mkv

Feb 5th, 2017
138
Never
Not a member of Pastebin yet? Sign Up, it unlocks many cool features!
  1. General
  2. Unique ID : 240354377837562970808191039363139712249 (0xB4D291C13245328F833C55A9F9EF34F9)
  3. Complete name : [GJM] Seiren - 02 [E76B7905].mkv
  4. Format : Matroska
  5. Format version : Version 4 / Version 2
  6. File size : 207 MiB
  7. Duration : 24mn 9s
  8. Overall bit rate : 1 197 Kbps
  9. Encoded date : UTC 2017-01-15 14:43:44
  10. Writing application : mkvmerge v9.7.1 ('Pandemonium') 32bit
  11. Writing library : libebml v1.3.4 + libmatroska v1.4.5
  12. Attachments : BEARDRIDER.TTF / BEAUREGARDDISPLAYSSI.TTF / BURBINCASUALNC.TTF / CENTRALESANSRND-BOLD.TTF / CHALKYCHICKEN.TTF / DJBYARDSALEMARKER-BOLD.TTF / ESPECIALKAY.TTF / FONTOONITC-REGULAR.TTF / FOTSEURATPRONSTRP-EXTRABOLD.OTF / GANDHISANS-BOLD.OTF / GANDHISANS-BOLDITALIC.OTF / HANDWRITTENCRYSTALV2.TTF / JD.TTF / MARKERSD.TTF / MECHANICALPENCIL.TTF / SHANCALLUNA.TTF / SQUEAKYCHALKSOUND.TTF / WOLFSRAIN.TTF / ALPINE_SCRIPT.TTF
  13.  
  14. Video
  15. ID : 1
  16. Format : AVC
  17. Format/Info : Advanced Video Codec
  18. Format profile : High 10@L5
  19. Format settings, CABAC : Yes
  20. Format settings, ReFrames : 16 frames
  21. Codec ID : V_MPEG4/ISO/AVC
  22. Duration : 24mn 9s
  23. Bit rate : 984 Kbps
  24. Width : 1 280 pixels
  25. Height : 720 pixels
  26. Display aspect ratio : 16:9
  27. Frame rate mode : Constant
  28. Frame rate : 23.976 (24000/1001) fps
  29. Color space : YUV
  30. Chroma subsampling : 4:2:0
  31. Bit depth : 10 bits
  32. Scan type : Progressive
  33. Bits/(Pixel*Frame) : 0.045
  34. Stream size : 170 MiB (82%)
  35. Writing library : x264 core 148 r2705+54 9f484c1 t_mod_Custom [10-bit@all X86_64]
  36. Encoding settings : cabac=1 / ref=16 / deblock=1:-2:-2 / analyse=0x3:0x133 / me=umh / subme=10 / psy=1 / fade_compensate=0.50 / psy_rd=0.85:0.00 / mixed_ref=1 / me_range=32 / chroma_me=1 / trellis=2 / 8x8dct=1 / cqm=0 / deadzone=21,11 / fast_pskip=0 / chroma_qp_offset=-2 / threads=12 / lookahead_threads=3 / sliced_threads=0 / nr=0 / decimate=0 / interlaced=0 / bluray_compat=0 / constrained_intra=0 / fgo=0 / bframes=16 / b_pyramid=2 / b_adapt=2 / b_bias=0 / direct=3 / weightb=1 / open_gop=0 / weightp=2 / keyint=480 / keyint_min=12 / scenecut=40 / intra_refresh=0 / rc_lookahead=40 / rc=crf / mbtree=1 / crf=17.0000 / qcomp=0.75 / qpmin=0:0:0 / qpmax=47:47:47 / qpstep=4 / ip_ratio=1.40 / aq=3:0.85 / aq-sensitivity=10.00 / aq-factor=1.00:1.00:1.00 / aq2=0 / aq3=0
  37. Language : Japanese
  38. Default : Yes
  39. Forced : No
  40. Color range : Limited
  41. Matrix coefficients : BT.709
  42.  
  43. Audio
  44. ID : 2
  45. Format : AAC
  46. Format/Info : Advanced Audio Codec
  47. Format profile : LC
  48. Codec ID : A_AAC
  49. Duration : 24mn 9s
  50. Bit rate : 192 Kbps
  51. Channel(s) : 2 channels
  52. Channel positions : Front: L R
  53. Sampling rate : 48.0 KHz
  54. Frame rate : 46.875 fps (1024 spf)
  55. Compression mode : Lossy
  56. Stream size : 32.6 MiB (16%)
  57. Language : Japanese
  58. Default : Yes
  59. Forced : No
  60.  
  61. Text
  62. ID : 3
  63. Format : ASS
  64. Codec ID : S_TEXT/ASS
  65. Codec ID/Info : Advanced Sub Station Alpha
  66. Duration : 23mn 58s
  67. Bit rate : 12.0 Kbps
  68. Count of elements : 17609
  69. Compression mode : Lossless
  70. Stream size : 2.05 MiB (1%)
  71. Title : No Honorifics
  72. Language : English
  73. Default : Yes
  74. Forced : No
  75.  
  76. Menu
  77. 00:00:00.000 : en:Intro
  78. 00:00:40.040 : en:OP
  79. 00:02:09.838 : en:Part A
  80. 00:12:07.810 : en:Part B
  81. 00:22:09.828 : en:ED
  82. 00:23:39.793 : en:Preview
RAW Paste Data