SHARE
TWEET

Apartment 212 WEB-DL 720p

dirtyharrys May 3rd, 2019 70 Never
Not a member of Pastebin yet? Sign Up, it unlocks many cool features!
  1. General
  2. Unique ID                   : 152928359033109682925988981603324108000 (0x730CEE3BDA6902B6EEAE8C15631B9CE0)
  3. Complete name               : E:\V0VCQXBhcnRtZW50MjEy.mkv
  4. Format                      : Matroska
  5. Format version              : Version 4
  6. File size                   : 1.83 GiB
  7. Duration                    : 1 h 38 min
  8. Overall bit rate            : 2 665 kb/s
  9. Movie name                  : Apartment 212 WEB-DL / Apartment 212 WEB-DL
  10. Encoded date                : UTC 2019-05-01 08:24:02
  11. Writing application         : mkvmerge v30.1.0 ('Forever And More') 32-bit
  12. Writing library             : libebml v1.3.6 + libmatroska v1.4.9
  13. Copyright                   : Movies HDs 2019
  14. ARTIST                      : HarshLearner
  15.  
  16. Video
  17. ID                          : 1
  18. Format                      : AVC
  19. Format/Info                 : Advanced Video Codec
  20. Format profile              : High@L3.1
  21. Format settings             : CABAC / 4 Ref Frames
  22. Format settings, CABAC      : Yes
  23. Format settings, ReFrames   : 4 frames
  24. Codec ID                    : V_MPEG4/ISO/AVC
  25. Duration                    : 1 h 38 min
  26. Bit rate mode               : Constant
  27. Bit rate                    : 2 279 kb/s
  28. Nominal bit rate            : 6 000 kb/s
  29. Width                       : 1 280 pixels
  30. Height                      : 544 pixels
  31. Display aspect ratio        : 2.35:1
  32. Original display aspect rat : 2.35:1
  33. Frame rate mode             : Constant
  34. Frame rate                  : 23.976 (24000/1001) FPS
  35. Color space                 : YUV
  36. Chroma subsampling          : 4:2:0
  37. Bit depth                   : 8 bits
  38. Scan type                   : Progressive
  39. Bits/(Pixel*Frame)          : 0.137
  40. Stream size                 : 1.56 GiB (86%)
  41. Title                       : Apartment 212
  42. Default                     : Yes
  43. Forced                      : No
  44. Color range                 : Limited
  45. Color primaries             : BT.709
  46. Transfer characteristics    : BT.709
  47. Matrix coefficients         : BT.709
  48.  
  49. Audio
  50. ID                          : 2
  51. Format                      : AC-3
  52. Format/Info                 : Audio Coding 3
  53. Commercial name             : Dolby Digital
  54. Codec ID                    : A_AC3
  55. Duration                    : 1 h 38 min
  56. Bit rate mode               : Constant
  57. Bit rate                    : 384 kb/s
  58. Channel(s)                  : 6 channels
  59. Channel layout              : L R C LFE Ls Rs
  60. Sampling rate               : 48.0 kHz
  61. Frame rate                  : 31.250 FPS (1536 SPF)
  62. Bit depth                   : 16 bits
  63. Compression mode            : Lossy
  64. Stream size                 : 270 MiB (14%)
  65. Service kind                : Complete Main
  66. Default                     : Yes
  67. Forced                      : No
  68.  
  69. Text #1
  70. ID                          : 3
  71. Format                      : UTF-8
  72. Codec ID                    : S_TEXT/UTF8
  73. Codec ID/Info               : UTF-8 Plain Text
  74. Duration                    : 1 h 35 min
  75. Bit rate                    : 33 b/s
  76. Count of elements           : 785
  77. Stream size                 : 23.1 KiB (0%)
  78. Language                    : English
  79. Default                     : No
  80. Forced                      : No
  81.  
  82. Text #2
  83. ID                          : 4
  84. Format                      : UTF-8
  85. Codec ID                    : S_TEXT/UTF8
  86. Codec ID/Info               : UTF-8 Plain Text
  87. Duration                    : 1 h 35 min
  88. Bit rate                    : 38 b/s
  89. Count of elements           : 987
  90. Stream size                 : 26.9 KiB (0%)
  91. Title                       : SDH
  92. Language                    : English
  93. Default                     : No
  94. Forced                      : No
  95.  
  96. Text #3
  97. ID                          : 5
  98. Format                      : UTF-8
  99. Codec ID                    : S_TEXT/UTF8
  100. Codec ID/Info               : UTF-8 Plain Text
  101. Duration                    : 1 h 33 min
  102. Bit rate                    : 30 b/s
  103. Count of elements           : 648
  104. Stream size                 : 20.7 KiB (0%)
  105. Language                    : Spanish
  106. Default                     : Yes
  107. Forced                      : Yes
RAW Paste Data
We use cookies for various purposes including analytics. By continuing to use Pastebin, you agree to our use of cookies as described in the Cookies Policy. OK, I Understand
 
Top