Advertisement
Guest User

Untitled

a guest
Jun 28th, 2023
52
0
Never
Not a member of Pastebin yet? Sign Up, it unlocks many cool features!
text 4.52 KB | None | 0 0
  1. .\ffmpeg.exe : ffmpeg version N-111281-g285c7f6f6b-20230627 Copyright (c) 2000-2023 the FFmpeg developers
  2. At line:1 char:1
  3. + .\ffmpeg.exe -i .\Movie.DDVT.mp4
  4. + ~~~~~~~~~~~~~~~~~~~~~~~~~~~~~~~~~~~~~~~~~~~~~~~~~~~~~~~~~~~~~~~~~~~~~
  5. + CategoryInfo : NotSpecified: (ffmpeg version ...mpeg developers:String) [], RemoteException
  6. + FullyQualifiedErrorId : NativeCommandError
  7.  
  8. built with gcc 13.1.0 (crosstool-NG 1.25.0.196_227d99d)
  9. configuration: --prefix=/ffbuild/prefix --pkg-config-flags=--static --pkg-config=pkg-config
  10. --cross-prefix=x86_64-w64-mingw32- --arch=x86_64 --target-os=mingw32 --enable-gpl --enable-version3 --disable-debug
  11. --disable-w32threads --enable-pthreads --enable-iconv --enable-libxml2 --enable-zlib --enable-libfreetype
  12. --enable-libfribidi --enable-gmp --enable-lzma --enable-fontconfig --enable-libvorbis --enable-opencl
  13. --disable-libpulse --enable-libvmaf --disable-libxcb --disable-xlib --enable-amf --enable-libaom --enable-libaribb24
  14. --enable-avisynth --enable-chromaprint --enable-libdav1d --enable-libdavs2 --disable-libfdk-aac --enable-ffnvcodec
  15. --enable-cuda-llvm --enable-frei0r --enable-libgme --enable-libkvazaar --enable-libass --enable-libbluray
  16. --enable-libjxl --enable-libmp3lame --enable-libopus --enable-librist --enable-libssh --enable-libtheora
  17. --enable-libvpx --enable-libwebp --enable-lv2 --enable-libvpl --enable-openal --enable-libopencore-amrnb
  18. --enable-libopencore-amrwb --enable-libopenh264 --enable-libopenjpeg --enable-libopenmpt --enable-librav1e
  19. --enable-librubberband --enable-schannel --enable-sdl2 --enable-libsoxr --enable-libsrt --enable-libsvtav1
  20. --enable-libtwolame --enable-libuavs3d --disable-libdrm --disable-vaapi --enable-libvidstab --enable-vulkan
  21. --enable-libshaderc --enable-libplacebo --enable-libx264 --enable-libx265 --enable-libxavs2 --enable-libxvid
  22. --enable-libzimg --enable-libzvbi --extra-cflags=-DLIBTWOLAME_STATIC --extra-cxxflags= --extra-ldflags=-pthread
  23. --extra-ldexeflags= --extra-libs=-lgomp --extra-version=20230627
  24. libavutil 58. 13.101 / 58. 13.101
  25. libavcodec 60. 21.100 / 60. 21.100
  26. libavformat 60. 9.100 / 60. 9.100
  27. libavdevice 60. 2.100 / 60. 2.100
  28. libavfilter 9. 8.102 / 9. 8.102
  29. libswscale 7. 3.100 / 7. 3.100
  30. libswresample 4. 11.100 / 4. 11.100
  31. libpostproc 57. 2.100 / 57. 2.100
  32. Input #0, mov,mp4,m4a,3gp,3g2,mj2, from '.\Movie.DDVT.mp4':
  33. Metadata:
  34. major_brand : isom
  35. minor_version : 512
  36. compatible_brands: isomdby1iso2mp41
  37. title : Movie
  38. encoder : Lavf60.5.100
  39. Duration: 03:13:04.13, start: 0.000000, bitrate: 27334 kb/s
  40. Stream #0:0[0x1](und): Video: hevc (Main 10) (hev1 / 0x31766568), yuv420p10le(tv, bt2020nc/bt2020/smpte2084),
  41. 3840x2160 [SAR 1:1 DAR 16:9], 24679 kb/s, 23.98 fps, 23.98 tbr, 24k tbn (default) (forced)
  42. Metadata:
  43. creation_time : 2023-06-25T11:25:52.000000Z
  44. handler_name : VideoHandler
  45. vendor_id : [0][0][0][0]
  46. Side data:
  47. DOVI configuration record: version: 1.0, profile: 8, level: 6, rpu flag: 1, el flag: 0, bl flag: 1,
  48. compatibility id: 1
  49. Stream #0:1[0x2](eng): Audio: eac3 (ec-3 / 0x332D6365), 48000 Hz, 5.1(side), fltp, 640 kb/s (default) (forced)
  50. Metadata:
  51. handler_name : SoundHandler
  52. vendor_id : [0][0][0][0]
  53. Side data:
  54. audio service type: main
  55. Stream #0:2[0x3](eng): Audio: eac3 (ec-3 / 0x332D6365), 48000 Hz, 5.1(side), fltp, 640 kb/s
  56. Metadata:
  57. handler_name : SoundHandler
  58. vendor_id : [0][0][0][0]
  59. Side data:
  60. audio service type: main
  61. Stream #0:3[0x4](eng): Audio: eac3 (Dolby Digital Plus + Dolby Atmos) (ec-3 / 0x332D6365), 48000 Hz, 5.1(side),
  62. fltp, 768 kb/s
  63. Metadata:
  64. handler_name : SoundHandler
  65. vendor_id : [0][0][0][0]
  66. Side data:
  67. audio service type: main
  68. Stream #0:4[0x5](eng): Audio: eac3 (ec-3 / 0x332D6365), 48000 Hz, 5.1(side), fltp, 640 kb/s
  69. Metadata:
  70. handler_name : SoundHandler
  71. vendor_id : [0][0][0][0]
  72. Side data:
  73. audio service type: main
  74. Stream #0:5[0x6](eng): Subtitle: mov_text (tx3g / 0x67337874), 0 kb/s (default) (forced)
  75. Metadata:
  76. handler_name : SubtitleHandler
  77. Stream #0:6[0x7](eng): Subtitle: mov_text (tx3g / 0x67337874), 0 kb/s
  78. Metadata:
  79. handler_name : SubtitleHandler
  80. Stream #0:7[0x8](eng): Subtitle: mov_text (tx3g / 0x67337874), 0 kb/s
  81. Metadata:
  82. handler_name : SubtitleHandler
  83. At least one output file must be specified
  84.  
Advertisement
Add Comment
Please, Sign In to add comment
Advertisement