iMN0

The.Spy.Who.Dumped.Me.2018.1080p.BluRay.REMUX.AVC.Atmos-EPSiLON.mkv

Oct 25th, 2018
46
Never
Not a member of Pastebin yet? Sign Up, it unlocks many cool features!
  1. General
  2. Unique ID : 53202901593367048975412575106047430933 (0x28068191C7FFCEC3E696219A39FC5115)
  3. Complete name : The.Spy.Who.Dumped.Me.2018.1080p.BluRay.REMUX.AVC.Atmos-EPSiLON.mkv
  4. Format : Matroska
  5. Format version : Version 4 / Version 2
  6. File size : 32.0 GiB
  7. Duration : 1h 56mn
  8. Overall bit rate mode : Variable
  9. Overall bit rate : 39.2 Mbps
  10. Movie name : The Spy Who Dumped Me (2018)
  11. Encoded date : UTC 2018-10-25 06:22:54
  12. Writing application : mkvmerge v28.1.0 ('Morning Child') 64-bit
  13. Writing library : libebml v1.3.6 + libmatroska v1.4.9
  14.  
  15. Video
  16. ID : 1
  17. Format : AVC
  18. Format/Info : Advanced Video Codec
  19. Format profile : High@L4.1
  20. Format settings, CABAC : Yes
  21. Format settings, ReFrames : 4 frames
  22. Codec ID : V_MPEG4/ISO/AVC
  23. Duration : 1h 56mn
  24. Bit rate mode : Variable
  25. Bit rate : 34.7 Mbps
  26. Maximum bit rate : 37.0 Mbps
  27. Width : 1 920 pixels
  28. Height : 1 080 pixels
  29. Display aspect ratio : 16:9
  30. Frame rate mode : Constant
  31. Frame rate : 23.976 (24000/1001) fps
  32. Color space : YUV
  33. Chroma subsampling : 4:2:0
  34. Bit depth : 8 bits
  35. Scan type : Progressive
  36. Bits/(Pixel*Frame) : 0.698
  37. Stream size : 28.4 GiB (89%)
  38. Title : MPEG-4 AVC Video / 34960 kbps / 1080p / 23.976 fps / 16:9 / High Profile 4.1
  39. Language : English
  40. Default : Yes
  41. Forced : No
  42.  
  43. Audio #1
  44. ID : 2
  45. Format : Atmos / TrueHD
  46. Codec ID : A_TRUEHD
  47. Duration : 1h 56mn
  48. Bit rate mode : Variable
  49. Bit rate : 3 681 Kbps
  50. Maximum bit rate : 5 811 Kbps
  51. Channel(s) : Object Based / 8 channels
  52. Channel positions : Object Based / Front: L C R, Side: L R, Back: L R, LFE
  53. Sampling rate : / 48.0 KHz
  54. Frame rate : 1 200.000 fps (40 spf)
  55. Compression mode : Lossless
  56. Stream size : 3.01 GiB (9%)
  57. Title : Dolby Atmos/TrueHD Audio / 7.1-Atmos / 48 kHz / 4321 kbps / 24-bit
  58. Language : English
  59. Default : Yes
  60. Forced : No
  61.  
  62. Audio #2
  63. ID : 3
  64. Format : AC-3
  65. Format/Info : Audio Coding 3
  66. Mode extension : CM (complete main)
  67. Format settings, Endianness : Big
  68. Codec ID : A_AC3
  69. Duration : 1h 56mn
  70. Bit rate mode : Constant
  71. Bit rate : 640 Kbps
  72. Channel(s) : 6 channels
  73. Channel positions : Front: L C R, Side: L R, LFE
  74. Sampling rate : 48.0 KHz
  75. Frame rate : 31.250 fps (1536 spf)
  76. Compression mode : Lossy
  77. Stream size : 535 MiB (2%)
  78. Title : Compatibility Track / Dolby Digital Audio / 5.1 / 48 kHz / 640 kbps
  79. Language : English
  80. Default : No
  81. Forced : No
  82.  
  83. Text #1
  84. ID : 4
  85. Format : PGS
  86. Codec ID : S_HDMV/PGS
  87. Codec ID/Info : Picture based subtitle format used on BDs/HD-DVDs
  88. Duration : 1h 50mn
  89. Bit rate : 62.5 Kbps
  90. Count of elements : 4554
  91. Stream size : 49.3 MiB (0%)
  92. Title : SDH
  93. Language : English
  94. Default : No
  95. Forced : No
  96.  
  97. Text #2
  98. ID : 5
  99. Format : PGS
  100. Codec ID : S_HDMV/PGS
  101. Codec ID/Info : Picture based subtitle format used on BDs/HD-DVDs
  102. Duration : 1h 49mn
  103. Bit rate : 47.0 Kbps
  104. Count of elements : 3581
  105. Stream size : 36.8 MiB (0%)
  106. Title : Latin American
  107. Language : Spanish
  108. Default : No
  109. Forced : No
  110.  
  111. Menu
  112. 00:00:00.000 : en:Chapter 1
  113. 00:07:32.410 : en:Chapter 2
  114. 00:14:08.097 : en:Chapter 3
  115. 00:20:44.535 : en:Chapter 4
  116. 00:28:28.040 : en:Chapter 5
  117. 00:35:15.864 : en:Chapter 6
  118. 00:41:22.438 : en:Chapter 7
  119. 00:47:24.675 : en:Chapter 8
  120. 00:52:19.136 : en:Chapter 9
  121. 01:02:37.295 : en:Chapter 10
  122. 01:09:52.146 : en:Chapter 11
  123. 01:14:41.644 : en:Chapter 12
  124. 01:23:34.551 : en:Chapter 13
  125. 01:26:44.449 : en:Chapter 14
  126. 01:41:58.612 : en:Chapter 15
  127. 01:46:01.313 : en:Chapter 16
RAW Paste Data