SHARE
TWEET

Untitled

a guest Feb 14th, 2020 70 Never
Not a member of Pastebin yet? Sign Up, it unlocks many cool features!
  1. General
  2. Format                                   : Matroska
  3. Format version                           : Version 4
  4. File size                                : 3.15 GiB
  5. Duration                                 : 44 min 6 s
  6. Overall bit rate                         : 10.2 Mb/s
  7. Movie name                               : (1x04) L'Assoluta Verità
  8. Encoded date                             : UTC 2020-02-14 18:38:56
  9. Writing application                      : mkvmerge v41.0.0 ('Smarra') 64-bit
  10. Writing library                          : libebml v1.3.9 + libmatroska v1.5.2
  11.  
  12. Video
  13. ID                                       : 1
  14. Format                                   : AVC
  15. Format/Info                              : Advanced Video Codec
  16. Format profile                           : High@L4
  17. Format settings                          : CABAC / 4 Ref Frames
  18. Format settings, CABAC                   : Yes
  19. Format settings, Reference frames        : 4 frames
  20. Codec ID                                 : V_MPEG4/ISO/AVC
  21. Duration                                 : 44 min 6 s
  22. Bit rate mode                            : Constant
  23. Bit rate                                 : 8 943 kb/s
  24. Nominal bit rate                         : 10 000 kb/s
  25. Width                                    : 1 920 pixels
  26. Height                                   : 1 080 pixels
  27. Display aspect ratio                     : 16:9
  28. Frame rate mode                          : Constant
  29. Frame rate                               : 23.976 (24000/1001) FPS
  30. Color space                              : YUV
  31. Chroma subsampling                       : 4:2:0
  32. Bit depth                                : 8 bits
  33. Scan type                                : Progressive
  34. Bits/(Pixel*Frame)                       : 0.180
  35. Stream size                              : 2.75 GiB (87%)
  36. Title                                    : AMZN WEB-DL 1080p
  37. Language                                 : English
  38. Default                                  : Yes
  39. Forced                                   : No
  40. Color range                              : Limited
  41. Color primaries                          : BT.709
  42. Transfer characteristics                 : BT.709
  43. Matrix coefficients                      : BT.709
  44.  
  45. Audio #1
  46. ID                                       : 2
  47. Format                                   : E-AC-3
  48. Format/Info                              : Enhanced AC-3
  49. Commercial name                          : Dolby Digital Plus
  50. Codec ID                                 : A_EAC3
  51. Duration                                 : 44 min 6 s
  52. Bit rate mode                            : Constant
  53. Bit rate                                 : 640 kb/s
  54. Channel(s)                               : 6 channels
  55. Channel layout                           : L R C LFE Ls Rs
  56. Sampling rate                            : 48.0 kHz
  57. Frame rate                               : 31.250 FPS (1536 SPF)
  58. Compression mode                         : Lossy
  59. Stream size                              : 202 MiB (6%)
  60. Title                                    : DD+ 5.1 @ 640 kb/s
  61. Language                                 : Italian
  62. Service kind                             : Complete Main
  63. Default                                  : Yes
  64. Forced                                   : No
  65.  
  66. Audio #2
  67. ID                                       : 3
  68. Format                                   : E-AC-3
  69. Format/Info                              : Enhanced AC-3
  70. Commercial name                          : Dolby Digital Plus
  71. Codec ID                                 : A_EAC3
  72. Duration                                 : 44 min 6 s
  73. Bit rate mode                            : Constant
  74. Bit rate                                 : 640 kb/s
  75. Channel(s)                               : 6 channels
  76. Channel layout                           : L R C LFE Ls Rs
  77. Sampling rate                            : 48.0 kHz
  78. Frame rate                               : 31.250 FPS (1536 SPF)
  79. Compression mode                         : Lossy
  80. Stream size                              : 202 MiB (6%)
  81. Title                                    : DD+ 5.1 @ 640 kb/s
  82. Language                                 : English
  83. Service kind                             : Complete Main
  84. Default                                  : No
  85. Forced                                   : No
  86.  
  87. Text #1
  88. ID                                       : 4
  89. Format                                   : UTF-8
  90. Codec ID                                 : S_TEXT/UTF8
  91. Codec ID/Info                            : UTF-8 Plain Text
  92. Duration                                 : 24 min 3 s
  93. Bit rate                                 : 3 b/s
  94. Count of elements                        : 25
  95. Stream size                              : 558 Bytes (0%)
  96. Title                                    : Forced [IT]
  97. Language                                 : Italian
  98. Default                                  : Yes
  99. Forced                                   : Yes
  100.  
  101. Text #2
  102. ID                                       : 5
  103. Format                                   : UTF-8
  104. Codec ID                                 : S_TEXT/UTF8
  105. Codec ID/Info                            : UTF-8 Plain Text
  106. Duration                                 : 43 min 1 s
  107. Bit rate                                 : 58 b/s
  108. Count of elements                        : 552
  109. Stream size                              : 18.3 KiB (0%)
  110. Title                                    : Full [IT]
  111. Language                                 : Italian
  112. Default                                  : No
  113. Forced                                   : No
  114.  
  115. Text #3
  116. ID                                       : 6
  117. Format                                   : UTF-8
  118. Codec ID                                 : S_TEXT/UTF8
  119. Codec ID/Info                            : UTF-8 Plain Text
  120. Duration                                 : 40 min 11 s
  121. Bit rate                                 : 2 b/s
  122. Count of elements                        : 37
  123. Stream size                              : 857 Bytes (0%)
  124. Title                                    : Forced [EN]
  125. Language                                 : English
  126. Default                                  : No
  127. Forced                                   : No
  128.  
  129. Text #4
  130. ID                                       : 7
  131. Format                                   : UTF-8
  132. Codec ID                                 : S_TEXT/UTF8
  133. Codec ID/Info                            : UTF-8 Plain Text
  134. Duration                                 : 42 min 59 s
  135. Bit rate                                 : 65 b/s
  136. Count of elements                        : 582
  137. Stream size                              : 20.6 KiB (0%)
  138. Title                                    : Full [EN]
  139. Language                                 : English
  140. Default                                  : No
  141. Forced                                   : No
  142.  
  143. Menu
  144. 00:00:00.000                             : en:Amazon Original
  145. 00:00:06.000                             : en:Previously On
  146. 00:01:15.000                             : en:Picard visits a refugee colony
  147. 00:06:22.000                             : en:Opening Credits
  148. 00:08:02.000                             : en:A trip to Vashti
  149. 00:15:27.000                             : en:Ganmadan the Destroyer
  150. 00:16:19.000                             : en:Meeting old friends
  151. 00:19:43.000                             : en:Soji asks Narek for the truth
  152. 00:24:53.000                             : en:Picard asks for help from the Qalankhkai
  153. 00:28:06.000                             : en:Binding a sword to a quest
  154. 00:30:39.000                             : en:Romulans confront Picard
  155. 00:37:19.000                             : en:Narissa confronts her brother
  156. 00:40:08.000                             : en:A targeted attack
  157. 00:43:06.000                             : en:End Credits
RAW Paste Data
We use cookies for various purposes including analytics. By continuing to use Pastebin, you agree to our use of cookies as described in the Cookies Policy. OK, I Understand
Top