iMN0

The.Rookies.2019.REMUX.1080p.Blu-ray.AVC.DTS-HD.MA.5.1-LEGi0N.mkv

Jul 6th, 2021
108
Never
Not a member of Pastebin yet? Sign Up, it unlocks many cool features!
  1. General
  2. Unique ID : 61099051475442357114907659233628710586 (0x2DF73FD0E18960D87CEB9CD6C732E6BA)
  3. Complete name : The.Rookies.2019.REMUX.1080p.Blu-ray.AVC.DTS-HD.MA.5.1-LEGi0N.mkv
  4. Format : Matroska
  5. Format version : Version 4
  6. File size : 26.8 GiB
  7. Duration : 1 h 53 min
  8. Overall bit rate mode : Variable
  9. Overall bit rate : 34.0 Mb/s
  10. Encoded date : UTC 2021-05-22 20:28:43
  11. Writing application : mkvmerge v57.0.0 ('Till The End') 64-bit
  12. Writing library : libebml v1.4.2 + libmatroska v1.6.4
  13.  
  14. Video
  15. ID : 1
  16. Format : AVC
  17. Format/Info : Advanced Video Codec
  18. Format profile : High@L4.1
  19. Format settings : CABAC / 4 Ref Frames
  20. Format settings, CABAC : Yes
  21. Format settings, Reference frames : 4 frames
  22. Codec ID : V_MPEG4/ISO/AVC
  23. Duration : 1 h 53 min
  24. Bit rate mode : Constant
  25. Bit rate : 32.0 Mb/s
  26. Width : 1 920 pixels
  27. Height : 1 080 pixels
  28. Display aspect ratio : 16:9
  29. Frame rate mode : Constant
  30. Frame rate : 23.976 (24000/1001) FPS
  31. Color space : YUV
  32. Chroma subsampling : 4:2:0
  33. Bit depth : 8 bits
  34. Scan type : Progressive
  35. Bits/(Pixel*Frame) : 0.644
  36. Stream size : 24.5 GiB (91%)
  37. Title : Chinese
  38. Language : Chinese
  39. Default : Yes
  40. Forced : No
  41.  
  42. Audio
  43. ID : 2
  44. Format : DTS XLL
  45. Format/Info : Digital Theater Systems
  46. Commercial name : DTS-HD Master Audio
  47. Codec ID : A_DTS
  48. Duration : 1 h 53 min
  49. Bit rate mode : Variable
  50. Bit rate : 2 911 kb/s
  51. Channel(s) : 6 channels
  52. Channel layout : C L R Ls Rs LFE
  53. Sampling rate : 48.0 kHz
  54. Frame rate : 93.750 FPS (512 SPF)
  55. Bit depth : 24 bits
  56. Compression mode : Lossless
  57. Stream size : 2.30 GiB (9%)
  58. Title : English (dubbed)
  59. Language : English
  60. Default : Yes
  61. Forced : No
  62.  
  63. Text #1
  64. ID : 3
  65. Format : PGS
  66. Codec ID : S_HDMV/PGS
  67. Codec ID/Info : Picture based subtitle format used on BDs/HD-DVDs
  68. Duration : 1 h 39 min
  69. Bit rate : 18.7 kb/s
  70. Count of elements : 1782
  71. Stream size : 13.3 MiB (0%)
  72. Title : English (dubbed)
  73. Language : English
  74. Default : No
  75. Forced : No
  76.  
  77. Text #2
  78. ID : 4
  79. Format : PGS
  80. Codec ID : S_HDMV/PGS
  81. Codec ID/Info : Picture based subtitle format used on BDs/HD-DVDs
  82. Duration : 1 h 52 min
  83. Bit rate : 43.1 kb/s
  84. Count of elements : 4282
  85. Stream size : 34.8 MiB (0%)
  86. Title : English (SDH)
  87. Language : English
  88. Default : No
  89. Forced : No
  90.  
  91. Text #3
  92. ID : 5
  93. Format : PGS
  94. Codec ID : S_HDMV/PGS
  95. Codec ID/Info : Picture based subtitle format used on BDs/HD-DVDs
  96. Duration : 1 h 18 min
  97. Bit rate : 458 b/s
  98. Count of elements : 25
  99. Stream size : 265 KiB (0%)
  100. Title : English foreign parts
  101. Language : English
  102. Default : No
  103. Forced : No
  104.  
  105. Menu
  106. 00:00:00.000 : :Chapter 01
  107. 00:09:07.881 : :Chapter 02
  108. 00:22:03.864 : :Chapter 03
  109. 00:30:29.828 : :Chapter 04
  110. 00:38:59.963 : :Chapter 05
  111. 00:50:03.167 : :Chapter 06
  112. 00:59:44.539 : :Chapter 07
  113. 01:08:55.173 : :Chapter 08
  114. 01:18:04.555 : :Chapter 09
  115. 01:28:21.505 : :Chapter 10
  116. 01:36:45.883 : :Chapter 11
  117. 01:43:08.391 : :Chapter 12
RAW Paste Data