HYBRID_BEING

[Monosubs + TarosScrubs] YGO VRAINS EP 3.mkv

Jul 24th, 2017
442
Never
Not a member of Pastebin yet? Sign Up, it unlocks many cool features!
  1. General
  2. Unique ID : 175629887665236005143373523423324044968 (0x84211602ADED5BB7BCD24437C0807EA8)
  3. Complete name : [Monosubs + TarosScrubs] YGO VRAINS EP 3.mkv
  4. Format : Matroska
  5. Format version : Version 4 / Version 2
  6. File size : 479 MiB
  7. Duration : 24mn 19s
  8. Overall bit rate : 2 753 Kbps
  9. Encoded date : UTC 2017-05-25 07:02:11
  10. Writing application : mkvmerge v12.0.0 ('Trust / Lust') 64bit
  11. Writing library : libebml v1.3.4 + libmatroska v1.4.5
  12. Attachments : blue highway rg_0.ttf / matrixbsc_0.ttf / tahomabd_0.ttf
  13.  
  14. Video
  15. ID : 2
  16. Format : AVC
  17. Format/Info : Advanced Video Codec
  18. Format profile : High@L4.1
  19. Format settings, CABAC : Yes
  20. Format settings, ReFrames : 4 frames
  21. Codec ID : V_MPEG4/ISO/AVC
  22. Duration : 24mn 19s
  23. Bit rate : 2 584 Kbps
  24. Width : 1 280 pixels
  25. Height : 720 pixels
  26. Display aspect ratio : 16:9
  27. Frame rate mode : Constant
  28. Frame rate : 23.976 (24000/1001) fps
  29. Color space : YUV
  30. Chroma subsampling : 4:2:0
  31. Bit depth : 8 bits
  32. Scan type : Progressive
  33. Bits/(Pixel*Frame) : 0.117
  34. Stream size : 450 MiB (94%)
  35. Writing library : x264 core 140 r2377+40 929f149 tMod [8-bit@all X86_64]
  36. Encoding settings : cabac=1 / ref=4 / deblock=1:1:1 / analyse=0x3:0x113 / me=umh / subme=9 / psy=1 / fade_compensate=0.00 / psy_rd=1.00:0.00 / mixed_ref=1 / me_range=32 / chroma_me=1 / trellis=2 / 8x8dct=1 / cqm=0 / deadzone=21,11 / fast_pskip=1 / chroma_qp_offset=-2 / threads=16 / lookahead_threads=2 / sliced_threads=0 / nr=0 / decimate=1 / interlaced=0 / bluray_compat=0 / constrained_intra=0 / fgo=0 / bframes=9 / b_pyramid=2 / b_adapt=2 / b_bias=0 / direct=1 / weightb=1 / open_gop=0 / weightp=2 / keyint=240 / keyint_min=24 / scenecut=40 / intra_refresh=0 / rc=crf / mbtree=0 / crf=19.0000 / qcomp=0.70 / qpmin=0:0:0 / qpmax=69:69:69 / qpstep=4 / ip_ratio=1.40 / pb_ratio=1.30 / aq=1:0.85 / aq-sensitivity=10.00 / aq-factor=1.00:1.00:1.00 / aq2=0 / aq3=0
  37. Default : Yes
  38. Forced : No
  39.  
  40. Audio
  41. ID : 3
  42. Format : AAC
  43. Format/Info : Advanced Audio Codec
  44. Format profile : LC
  45. Codec ID : A_AAC
  46. Duration : 24mn 19s
  47. Bit rate : 163 Kbps
  48. Channel(s) : 2 channels
  49. Channel positions : Front: L R
  50. Sampling rate : 48.0 KHz
  51. Frame rate : 46.875 fps (1024 spf)
  52. Compression mode : Lossy
  53. Stream size : 28.3 MiB (6%)
  54. Default : Yes
  55. Forced : No
  56.  
  57. Text
  58. ID : 1
  59. Format : ASS
  60. Codec ID : S_TEXT/ASS
  61. Codec ID/Info : Advanced Sub Station Alpha
  62. Duration : 24mn 9s
  63. Bit rate : 168 bps
  64. Count of elements : 464
  65. Compression mode : Lossless
  66. Stream size : 29.8 KiB (0%)
  67. Default : Yes
  68. Forced : No
  69.  
  70. Menu #1
  71. 00:03:00.000 : en:Opening
  72. 00:04:40.000 : en:Start
  73. 00:22:09.800 : en:Ending
  74. 00:23:39.800 : en:Preview
  75.  
  76. Menu #2
  77. 00:00:00.000 : en:Intro
  78. 00:03:00.055 : en:OP
  79. 00:04:30.020 : en:Sponsor
  80. 00:04:39.905 : en:A-part
  81. 00:11:34.861 : en:B-part
  82. 00:22:09.870 : en:ED
  83. 00:23:39.793 : en:Next Episode Preview
  84. 00:24:09.740 : en:Sponsor
  85. 00:24:19.625 : en:End
RAW Paste Data