SHARE
TWEET

[Lillie] Pokémon Sun & Moon - 02 [720p][84115D5D].mkv

HYBRID_BEING Dec 21st, 2016 118 Never
Not a member of Pastebin yet? Sign Up, it unlocks many cool features!
  1. General
  2. Unique ID                                : 113137173105961754430468049219067554419 (0x551D6D4CA5F35F66D2A721919623AA73)
  3. Complete name                            : [Lillie] Pokémon Sun & Moon - 02 [720p][84115D5D].mkv
  4. Format                                   : Matroska
  5. Format version                           : Version 4 / Version 2
  6. File size                                : 422 MiB
  7. Duration                                 : 24mn 43s
  8. Overall bit rate                         : 2 384 Kbps
  9. Movie name                               :  Pokémon Sun & Moon - 02
  10. Encoded date                             : UTC 2016-12-02 19:51:12
  11. Writing application                      : mkvmerge v9.5.0 ('Quiet Fire') 64bit
  12. Writing library                          : libebml v1.3.4 + libmatroska v1.4.5
  13. Attachments                              : calibri.ttf / calibrib.ttf / candarab.ttf / CartoonDemiBold.ttf / segoeuib.ttf / segoeuiz.ttf / SHOWG.TTF
  14.  
  15. Video
  16. ID                                       : 1
  17. Format                                   : AVC
  18. Format/Info                              : Advanced Video Codec
  19. Format profile                           : High@L4
  20. Format settings, CABAC                   : Yes
  21. Format settings, ReFrames                : 6 frames
  22. Codec ID                                 : V_MPEG4/ISO/AVC
  23. Duration                                 : 24mn 43s
  24. Bit rate                                 : 2 199 Kbps
  25. Width                                    : 1 280 pixels
  26. Height                                   : 720 pixels
  27. Display aspect ratio                     : 16:9
  28. Frame rate mode                          : Constant
  29. Frame rate                               : 23.976 (24000/1001) fps
  30. Color space                              : YUV
  31. Chroma subsampling                       : 4:2:0
  32. Bit depth                                : 8 bits
  33. Scan type                                : Progressive
  34. Bits/(Pixel*Frame)                       : 0.100
  35. Stream size                              : 389 MiB (92%)
  36. Writing library                          : x264 core 148 r2638 7599210
  37. Encoding settings                        : cabac=1 / ref=6 / deblock=1:1:1 / analyse=0x3:0x113 / me=umh / subme=6 / psy=1 / psy_rd=0.40:0.00 / mixed_ref=1 / me_range=16 / chroma_me=1 / trellis=2 / 8x8dct=1 / cqm=0 / deadzone=21,11 / fast_pskip=1 / chroma_qp_offset=-2 / threads=6 / lookahead_threads=1 / sliced_threads=0 / nr=0 / decimate=1 / interlaced=0 / bluray_compat=0 / constrained_intra=0 / bframes=5 / b_pyramid=2 / b_adapt=2 / b_bias=0 / direct=3 / weightb=1 / open_gop=0 / weightp=2 / keyint=240 / keyint_min=23 / scenecut=40 / intra_refresh=0 / rc_lookahead=40 / rc=crf / mbtree=1 / crf=18.0 / qcomp=0.60 / qpmin=10 / qpmax=51 / qpstep=4 / vbv_maxrate=17500 / vbv_bufsize=14000 / crf_max=0.0 / nal_hrd=none / filler=0 / ip_ratio=1.40 / aq=1:0.60
  38. Language                                 : Japanese
  39. Default                                  : Yes
  40. Forced                                   : No
  41.  
  42. Audio
  43. ID                                       : 2
  44. Format                                   : AAC
  45. Format/Info                              : Advanced Audio Codec
  46. Format profile                           : LC
  47. Codec ID                                 : A_AAC
  48. Duration                                 : 24mn 43s
  49. Bit rate                                 : 158 Kbps
  50. Channel(s)                               : 2 channels
  51. Channel positions                        : Front: L R
  52. Sampling rate                            : 48.0 KHz
  53. Frame rate                               : 46.875 fps (1024 spf)
  54. Compression mode                         : Lossy
  55. Delay relative to video                  : 9ms
  56. Stream size                              : 28.0 MiB (7%)
  57. Language                                 : Japanese
  58. Default                                  : Yes
  59. Forced                                   : No
  60.  
  61. Text #1
  62. ID                                       : 3
  63. Format                                   : ASS
  64. Codec ID                                 : S_TEXT/ASS
  65. Codec ID/Info                            : Advanced Sub Station Alpha
  66. Duration                                 : 24mn 43s
  67. Bit rate                                 : 139 bps
  68. Count of elements                        : 431
  69. Compression mode                         : Lossless
  70. Stream size                              : 25.2 KiB (0%)
  71. Title                                    : eng names
  72. Language                                 : English
  73. Default                                  : Yes
  74. Forced                                   : No
  75.  
  76. Text #2
  77. ID                                       : 4
  78. Format                                   : ASS
  79. Codec ID                                 : S_TEXT/ASS
  80. Codec ID/Info                            : Advanced Sub Station Alpha
  81. Duration                                 : 24mn 43s
  82. Bit rate                                 : 139 bps
  83. Count of elements                        : 431
  84. Compression mode                         : Lossless
  85. Stream size                              : 25.2 KiB (0%)
  86. Title                                    : orig
  87. Language                                 : English
  88. Default                                  : No
  89. Forced                                   : No
  90.  
  91. Menu
  92. 00:00:00.000                             : en:Intro
  93. 00:01:30.966                             : en:Opening
  94. 00:02:59.012                             : en:Part A
  95. 00:09:09.924                             : en:Eyecatch
  96. 00:09:21.895                             : en:Part B
  97. 00:22:38.816                             : en:Ending
  98. 00:23:59.813                             : en:Preview
RAW Paste Data
We use cookies for various purposes including analytics. By continuing to use Pastebin, you agree to our use of cookies as described in the Cookies Policy. OK, I Understand
Top