iMN0

Van.Helsing.2004.Hybrid.1080p.BluRay.REMUX.AVC.DTS-X.7.1-BLURANiUM.mkv

Jul 7th, 2021
76
Never
Not a member of Pastebin yet? Sign Up, it unlocks many cool features!
  1. General
  2. Complete name : Van.Helsing.2004.Hybrid.1080p.BluRay.REMUX.AVC.DTS-X.7.1-BLURANiUM.mkv
  3. Format : Matroska
  4. Format version : Version 4
  5. File size : 34.2 GiB
  6. Duration : 2 h 11 min
  7. Overall bit rate mode : Variable
  8. Overall bit rate : 37.1 Mb/s
  9. Encoded date : UTC 2020-09-10 22:55:23
  10. Writing application : mkvmerge v50.0.0 ('Awakenings') 64-bit
  11. Writing library : libebml v1.4.0 + libmatroska v1.6.2
  12. IMDB : tt0338526
  13. TMDB : movie/7131
  14.  
  15. Video
  16. ID : 1
  17. Format : AVC
  18. Format/Info : Advanced Video Codec
  19. Format profile : High@L4.1
  20. Format settings : CABAC / 4 Ref Frames
  21. Format settings, CABAC : Yes
  22. Format settings, Reference frames : 4 frames
  23. Codec ID : V_MPEG4/ISO/AVC
  24. Duration : 2 h 11 min
  25. Bit rate mode : Variable
  26. Bit rate : 26.9 Mb/s
  27. Maximum bit rate : 35.0 Mb/s
  28. Width : 1 920 pixels
  29. Height : 1 080 pixels
  30. Display aspect ratio : 16:9
  31. Frame rate mode : Constant
  32. Frame rate : 23.976 (24000/1001) FPS
  33. Color space : YUV
  34. Chroma subsampling : 4:2:0
  35. Bit depth : 8 bits
  36. Scan type : Progressive
  37. Bits/(Pixel*Frame) : 0.541
  38. Stream size : 24.7 GiB (72%)
  39. Title : MPEG-4 AVC Video / 26992 kbps / 1080p / 23.976 fps / 16:9 / High Profile 4.1
  40. Language : English
  41. Default : Yes
  42. Forced : No
  43. Color range : Limited
  44. Color primaries : BT.709
  45. Transfer characteristics : BT.709
  46. Matrix coefficients : BT.709
  47.  
  48. Audio #1
  49. ID : 2
  50. Format : DTS XLL X
  51. Format/Info : Digital Theater Systems
  52. Commercial name : DTS-HD Master Audio
  53. Codec ID : A_DTS
  54. Duration : 2 h 11 min
  55. Bit rate mode : Variable
  56. Bit rate : 8 729 kb/s
  57. Channel(s) : 8 channels
  58. Channel(s)_Original : Object Based
  59. ChannelLayout_Original : Object Based
  60. Sampling rate : 48.0 kHz
  61. Frame rate : 93.750 FPS (512 SPF)
  62. Bit depth : 24 bits
  63. Stream size : 8.02 GiB (23%)
  64. Title : DTS:X Master Audio / 7.1 / 48 kHz / 8729 kbps / 24-bit
  65. Language : English
  66. Default : Yes
  67. Forced : No
  68.  
  69. Audio #2
  70. ID : 3
  71. Format : AC-3
  72. Format/Info : Audio Coding 3
  73. Commercial name : Dolby Digital
  74. Format settings : Dolby Surround
  75. Codec ID : A_AC3
  76. Duration : 2 h 11 min
  77. Bit rate mode : Constant
  78. Bit rate : 192 kb/s
  79. Channel(s) : 2 channels
  80. Channel layout : L R
  81. Sampling rate : 48.0 kHz
  82. Frame rate : 31.250 FPS (1536 SPF)
  83. Compression mode : Lossy
  84. Stream size : 181 MiB (1%)
  85. Title : Commentary by actors Richard Roxburgh, Shuler Hensley, and Will Kemp
  86. Language : English
  87. Service kind : Complete Main
  88. Default : No
  89. Forced : No
  90.  
  91. Audio #3
  92. ID : 4
  93. Format : AC-3
  94. Format/Info : Audio Coding 3
  95. Commercial name : Dolby Digital
  96. Format settings : Dolby Surround
  97. Codec ID : A_AC3
  98. Duration : 2 h 11 min
  99. Bit rate mode : Constant
  100. Bit rate : 192 kb/s
  101. Channel(s) : 2 channels
  102. Channel layout : L R
  103. Sampling rate : 48.0 kHz
  104. Frame rate : 31.250 FPS (1536 SPF)
  105. Compression mode : Lossy
  106. Stream size : 181 MiB (1%)
  107. Title : Commentary by director Stephen Sommers and editor/producer Bob Ducsay
  108. Language : English
  109. Service kind : Complete Main
  110. Default : No
  111. Forced : No
  112.  
  113. Text #1
  114. ID : 5
  115. Format : PGS
  116. Codec ID : S_HDMV/PGS
  117. Codec ID/Info : Picture based subtitle format used on BDs/HD-DVDs
  118. Duration : 1 h 58 min
  119. Bit rate : 24.8 kb/s
  120. Count of elements : 2215
  121. Stream size : 21.1 MiB (0%)
  122. Title : SDH
  123. Language : English
  124. Default : No
  125. Forced : No
  126.  
  127. Text #2
  128. ID : 6
  129. Format : PGS
  130. Codec ID : S_HDMV/PGS
  131. Codec ID/Info : Picture based subtitle format used on BDs/HD-DVDs
  132. Duration : 2 h 1 min
  133. Bit rate : 14.4 kb/s
  134. Count of elements : 1876
  135. Stream size : 12.5 MiB (0%)
  136. Title : Mandarin Traditional
  137. Language : Chinese
  138. Default : No
  139. Forced : No
  140.  
  141. Text #3
  142. ID : 7
  143. Format : PGS
  144. Codec ID : S_HDMV/PGS
  145. Codec ID/Info : Picture based subtitle format used on BDs/HD-DVDs
  146. Duration : 2 h 1 min
  147. Bit rate : 19.9 kb/s
  148. Count of elements : 1874
  149. Stream size : 17.3 MiB (0%)
  150. Language : Danish
  151. Default : No
  152. Forced : No
  153.  
  154. Text #4
  155. ID : 8
  156. Format : PGS
  157. Codec ID : S_HDMV/PGS
  158. Codec ID/Info : Picture based subtitle format used on BDs/HD-DVDs
  159. Duration : 2 h 1 min
  160. Bit rate : 20.8 kb/s
  161. Count of elements : 1878
  162. Stream size : 18.0 MiB (0%)
  163. Language : Dutch
  164. Default : No
  165. Forced : No
  166.  
  167. Text #5
  168. ID : 9
  169. Format : PGS
  170. Codec ID : S_HDMV/PGS
  171. Codec ID/Info : Picture based subtitle format used on BDs/HD-DVDs
  172. Duration : 2 h 1 min
  173. Bit rate : 18.8 kb/s
  174. Count of elements : 1872
  175. Stream size : 16.3 MiB (0%)
  176. Language : Finnish
  177. Default : No
  178. Forced : No
  179.  
  180. Text #6
  181. ID : 10
  182. Format : PGS
  183. Codec ID : S_HDMV/PGS
  184. Codec ID/Info : Picture based subtitle format used on BDs/HD-DVDs
  185. Duration : 2 h 1 min
  186. Bit rate : 18.8 kb/s
  187. Count of elements : 1874
  188. Stream size : 16.4 MiB (0%)
  189. Language : French
  190. Default : No
  191. Forced : No
  192.  
  193. Text #7
  194. ID : 11
  195. Format : PGS
  196. Codec ID : S_HDMV/PGS
  197. Codec ID/Info : Picture based subtitle format used on BDs/HD-DVDs
  198. Duration : 2 h 1 min
  199. Bit rate : 22.2 kb/s
  200. Count of elements : 1868
  201. Stream size : 19.3 MiB (0%)
  202. Title : Canadian
  203. Language : French
  204. Default : No
  205. Forced : No
  206.  
  207. Text #8
  208. ID : 12
  209. Format : PGS
  210. Codec ID : S_HDMV/PGS
  211. Codec ID/Info : Picture based subtitle format used on BDs/HD-DVDs
  212. Duration : 2 h 1 min
  213. Bit rate : 33.7 kb/s
  214. Count of elements : 1876
  215. Stream size : 29.3 MiB (0%)
  216. Language : German
  217. Default : No
  218. Forced : No
  219.  
  220. Text #9
  221. ID : 13
  222. Format : PGS
  223. Codec ID : S_HDMV/PGS
  224. Codec ID/Info : Picture based subtitle format used on BDs/HD-DVDs
  225. Duration : 2 h 1 min
  226. Bit rate : 19.5 kb/s
  227. Count of elements : 1805
  228. Stream size : 17.0 MiB (0%)
  229. Language : Greek
  230. Default : No
  231. Forced : No
  232.  
  233. Text #10
  234. ID : 14
  235. Format : PGS
  236. Codec ID : S_HDMV/PGS
  237. Codec ID/Info : Picture based subtitle format used on BDs/HD-DVDs
  238. Duration : 2 h 1 min
  239. Bit rate : 28.5 kb/s
  240. Count of elements : 1878
  241. Stream size : 24.7 MiB (0%)
  242. Language : Italian
  243. Default : No
  244. Forced : No
  245.  
  246. Text #11
  247. ID : 15
  248. Format : PGS
  249. Codec ID : S_HDMV/PGS
  250. Codec ID/Info : Picture based subtitle format used on BDs/HD-DVDs
  251. Duration : 1 h 57 min
  252. Bit rate : 16.2 kb/s
  253. Count of elements : 1858
  254. Stream size : 13.6 MiB (0%)
  255. Language : Japanese
  256. Default : No
  257. Forced : No
  258.  
  259. Text #12
  260. ID : 16
  261. Format : PGS
  262. Codec ID : S_HDMV/PGS
  263. Codec ID/Info : Picture based subtitle format used on BDs/HD-DVDs
  264. Duration : 2 h 1 min
  265. Bit rate : 18.1 kb/s
  266. Count of elements : 1868
  267. Stream size : 15.7 MiB (0%)
  268. Language : Norwegian
  269. Default : No
  270. Forced : No
  271.  
  272. Text #13
  273. ID : 17
  274. Format : PGS
  275. Codec ID : S_HDMV/PGS
  276. Codec ID/Info : Picture based subtitle format used on BDs/HD-DVDs
  277. Duration : 2 h 1 min
  278. Bit rate : 21.3 kb/s
  279. Count of elements : 1880
  280. Stream size : 18.5 MiB (0%)
  281. Language : Portuguese
  282. Default : No
  283. Forced : No
  284.  
  285. Text #14
  286. ID : 18
  287. Format : PGS
  288. Codec ID : S_HDMV/PGS
  289. Codec ID/Info : Picture based subtitle format used on BDs/HD-DVDs
  290. Duration : 2 h 1 min
  291. Bit rate : 25.6 kb/s
  292. Count of elements : 1878
  293. Stream size : 22.2 MiB (0%)
  294. Language : Spanish
  295. Default : No
  296. Forced : No
  297.  
  298. Text #15
  299. ID : 19
  300. Format : PGS
  301. Codec ID : S_HDMV/PGS
  302. Codec ID/Info : Picture based subtitle format used on BDs/HD-DVDs
  303. Duration : 2 h 1 min
  304. Bit rate : 21.1 kb/s
  305. Count of elements : 1874
  306. Stream size : 18.3 MiB (0%)
  307. Title : Latin American
  308. Language : Spanish
  309. Default : No
  310. Forced : No
  311.  
  312. Text #16
  313. ID : 20
  314. Format : PGS
  315. Codec ID : S_HDMV/PGS
  316. Codec ID/Info : Picture based subtitle format used on BDs/HD-DVDs
  317. Duration : 2 h 1 min
  318. Bit rate : 19.2 kb/s
  319. Count of elements : 1876
  320. Stream size : 16.7 MiB (0%)
  321. Language : Swedish
  322. Default : No
  323. Forced : No
  324.  
  325. Text #17
  326. ID : 21
  327. Format : PGS
  328. Codec ID : S_HDMV/PGS
  329. Codec ID/Info : Picture based subtitle format used on BDs/HD-DVDs
  330. Duration : 2 h 1 min
  331. Bit rate : 69.1 kb/s
  332. Count of elements : 3944
  333. Stream size : 60.0 MiB (0%)
  334. Title : Commentary by actors Richard Roxburgh, Shuler Hensley, and Will Kemp
  335. Language : English
  336. Default : No
  337. Forced : No
  338.  
  339. Text #18
  340. ID : 22
  341. Format : PGS
  342. Codec ID : S_HDMV/PGS
  343. Codec ID/Info : Picture based subtitle format used on BDs/HD-DVDs
  344. Duration : 2 h 2 min
  345. Bit rate : 52.2 kb/s
  346. Count of elements : 3930
  347. Stream size : 45.6 MiB (0%)
  348. Title : Commentary by actors Richard Roxburgh, Shuler Hensley, and Will Kemp
  349. Language : French
  350. Default : No
  351. Forced : No
  352.  
  353. Text #19
  354. ID : 23
  355. Format : PGS
  356. Codec ID : S_HDMV/PGS
  357. Codec ID/Info : Picture based subtitle format used on BDs/HD-DVDs
  358. Duration : 2 h 2 min
  359. Bit rate : 69.5 kb/s
  360. Count of elements : 3948
  361. Stream size : 60.7 MiB (0%)
  362. Title : Commentary by actors Richard Roxburgh, Shuler Hensley, and Will Kemp
  363. Language : German
  364. Default : No
  365. Forced : No
  366.  
  367. Text #20
  368. ID : 24
  369. Format : PGS
  370. Codec ID : S_HDMV/PGS
  371. Codec ID/Info : Picture based subtitle format used on BDs/HD-DVDs
  372. Duration : 2 h 2 min
  373. Bit rate : 62.6 kb/s
  374. Count of elements : 3948
  375. Stream size : 54.7 MiB (0%)
  376. Title : Commentary by actors Richard Roxburgh, Shuler Hensley, and Will Kemp
  377. Language : Italian
  378. Default : No
  379. Forced : No
  380.  
  381. Text #21
  382. ID : 25
  383. Format : PGS
  384. Codec ID : S_HDMV/PGS
  385. Codec ID/Info : Picture based subtitle format used on BDs/HD-DVDs
  386. Duration : 2 h 1 min
  387. Bit rate : 31.2 kb/s
  388. Count of elements : 3311
  389. Stream size : 27.1 MiB (0%)
  390. Title : Commentary by actors Richard Roxburgh, Shuler Hensley, and Will Kemp
  391. Language : Japanese
  392. Default : No
  393. Forced : No
  394.  
  395. Text #22
  396. ID : 26
  397. Format : PGS
  398. Codec ID : S_HDMV/PGS
  399. Codec ID/Info : Picture based subtitle format used on BDs/HD-DVDs
  400. Duration : 2 h 2 min
  401. Bit rate : 65.1 kb/s
  402. Count of elements : 3948
  403. Stream size : 56.9 MiB (0%)
  404. Title : Commentary by actors Richard Roxburgh, Shuler Hensley, and Will Kemp
  405. Language : Spanish
  406. Default : No
  407. Forced : No
  408.  
  409. Text #23
  410. ID : 27
  411. Format : PGS
  412. Codec ID : S_HDMV/PGS
  413. Codec ID/Info : Picture based subtitle format used on BDs/HD-DVDs
  414. Duration : 2 h 2 min
  415. Bit rate : 100 kb/s
  416. Count of elements : 4476
  417. Stream size : 87.3 MiB (0%)
  418. Title : Commentary by director Stephen Sommers and editor/producer Bob Ducsay
  419. Language : English
  420. Default : No
  421. Forced : No
  422.  
  423. Text #24
  424. ID : 28
  425. Format : PGS
  426. Codec ID : S_HDMV/PGS
  427. Codec ID/Info : Picture based subtitle format used on BDs/HD-DVDs
  428. Duration : 2 h 2 min
  429. Bit rate : 80.8 kb/s
  430. Count of elements : 4518
  431. Stream size : 70.6 MiB (0%)
  432. Title : Commentary by director Stephen Sommers and editor/producer Bob Ducsay
  433. Language : French
  434. Default : No
  435. Forced : No
  436.  
  437. Text #25
  438. ID : 29
  439. Format : PGS
  440. Codec ID : S_HDMV/PGS
  441. Codec ID/Info : Picture based subtitle format used on BDs/HD-DVDs
  442. Duration : 2 h 2 min
  443. Bit rate : 108 kb/s
  444. Count of elements : 4484
  445. Stream size : 93.9 MiB (0%)
  446. Title : Commentary by director Stephen Sommers and editor/producer Bob Ducsay
  447. Language : German
  448. Default : No
  449. Forced : No
  450.  
  451. Text #26
  452. ID : 30
  453. Format : PGS
  454. Codec ID : S_HDMV/PGS
  455. Codec ID/Info : Picture based subtitle format used on BDs/HD-DVDs
  456. Duration : 2 h 2 min
  457. Bit rate : 85.0 kb/s
  458. Count of elements : 4476
  459. Stream size : 74.2 MiB (0%)
  460. Title : Commentary by director Stephen Sommers and editor/producer Bob Ducsay
  461. Language : Italian
  462. Default : No
  463. Forced : No
  464.  
  465. Text #27
  466. ID : 31
  467. Format : PGS
  468. Codec ID : S_HDMV/PGS
  469. Codec ID/Info : Picture based subtitle format used on BDs/HD-DVDs
  470. Duration : 2 h 2 min
  471. Bit rate : 39.3 kb/s
  472. Count of elements : 3075
  473. Stream size : 34.3 MiB (0%)
  474. Title : Commentary by director Stephen Sommers and editor/producer Bob Ducsay
  475. Language : Japanese
  476. Default : No
  477. Forced : No
  478.  
  479. Text #28
  480. ID : 32
  481. Format : PGS
  482. Codec ID : S_HDMV/PGS
  483. Codec ID/Info : Picture based subtitle format used on BDs/HD-DVDs
  484. Duration : 2 h 2 min
  485. Bit rate : 95.0 kb/s
  486. Count of elements : 4484
  487. Stream size : 83.0 MiB (0%)
  488. Title : Commentary by director Stephen Sommers and editor/producer Bob Ducsay
  489. Language : Spanish
  490. Default : No
  491. Forced : No
  492.  
  493. Menu
  494. 00:00:00.000 : en:It's Alive!
  495. 00:07:49.219 : en:The Vatican's Avenger
  496. 00:13:42.613 : en:The Order
  497. 00:20:14.505 : en:Werewolf Hunters
  498. 00:23:12.725 : en:Welcome to Transylvania
  499. 00:33:58.036 : en:His Name Is Van Helsing
  500. 00:38:22.258 : en:Looking for Answers
  501. 00:40:34.265 : en:Curse of the Werewolf
  502. 00:48:41.794 : en:Castle Frankenstein
  503. 00:53:18.862 : en:Dracula's Children
  504. 01:02:07.057 : en:Old Acquaintances
  505. 01:04:31.785 : en:Failure
  506. 01:08:42.952 : en:The Living Painting
  507. 01:09:54.982 : en:The Frankenstein Monster
  508. 01:14:17.703 : en:Hell on Wheels
  509. 01:18:55.314 : en:Mark of the Wolf
  510. 01:23:57.866 : en:The Monster's Ball
  511. 01:29:19.104 : en:Van Helsing's Vow
  512. 01:31:11.341 : en:The Door to Dracula
  513. 01:37:30.970 : en:The Cure
  514. 01:40:34.528 : en:Life for My Children
  515. 01:43:46.345 : en:You Can Go When You're Dead
  516. 01:45:56.809 : en:The Spawning
  517. 01:50:21.198 : en:The Only Way
  518. 01:55:16.076 : en:The Left Hand of God
  519. 01:57:08.396 : en:Sacrifice
  520. 01:58:42.240 : en:Reunion
  521. 02:02:01.189 : en:End Titles
RAW Paste Data