SHARE
TWEET

Shazam! BluRay HEVC

dirtyharrys Jul 18th, 2019 76 Never
Not a member of Pastebin yet? Sign Up, it unlocks many cool features!
  1. General
  2. Unique ID                   : 228479265876895562794703107886556688145 (0xABE381880FE48BA30F1AA31FAF64AF11)
  3. Complete name               : E:\Shazam!.2019.BluRay.1080p.HEVC.x265\Shazam!.2019.BluRay.1080p.HEVC.x265.mkv
  4. Format                      : Matroska
  5. Format version              : Version 4
  6. File size                   : 7.41 GiB
  7. Duration                    : 2 h 11 min
  8. Overall bit rate            : 8 056 kb/s
  9. Movie name                  : Shazam! BluRay / Shazam! BluRay
  10. Encoded date                : UTC 2019-07-16 07:30:03
  11. Writing application         : mkvmerge v30.1.0 ('Forever And More') 32-bit
  12. Writing library             : libebml v1.3.6 + libmatroska v1.4.9
  13. Copyright                   : Movies HDs 2019
  14. ARTIST                      : HarshLearner
  15.  
  16. Video
  17. ID                          : 1
  18. Format                      : HEVC
  19. Format/Info                 : High Efficiency Video Coding
  20. Format profile              : Main 10@L4.1@High
  21. Codec ID                    : V_MPEGH/ISO/HEVC
  22. Duration                    : 2 h 11 min
  23. Bit rate                    : 6 944 kb/s
  24. Width                       : 1 920 pixels
  25. Height                      : 800 pixels
  26. Display aspect ratio        : 2.40:1
  27. Frame rate mode             : Constant
  28. Frame rate                  : 23.976 (24000/1001) FPS
  29. Color space                 : YUV
  30. Chroma subsampling          : 4:2:0
  31. Bit depth                   : 10 bits
  32. Bits/(Pixel*Frame)          : 0.189
  33. Stream size                 : 6.39 GiB (86%)
  34. Title                       : Shazam!
  35. Language                    : English
  36. Default                     : Yes
  37. Forced                      : No
  38. Color range                 : Limited
  39. Color primaries             : BT.709
  40. Transfer characteristics    : BT.709
  41. Matrix coefficients         : BT.709
  42.  
  43. Audio #1
  44. ID                          : 2
  45. Format                      : AC-3
  46. Format/Info                 : Audio Coding 3
  47. Commercial name             : Dolby Digital
  48. Codec ID                    : A_AC3
  49. Duration                    : 2 h 11 min
  50. Bit rate mode               : Constant
  51. Bit rate                    : 640 kb/s
  52. Channel(s)                  : 6 channels
  53. Channel layout              : L R C LFE Ls Rs
  54. Sampling rate               : 48.0 kHz
  55. Frame rate                  : 31.250 FPS (1536 SPF)
  56. Bit depth                   : 16 bits
  57. Compression mode            : Lossy
  58. Stream size                 : 603 MiB (8%)
  59. Language                    : English
  60. Service kind                : Complete Main
  61. Default                     : No
  62. Forced                      : No
  63.  
  64. Audio #2
  65. ID                          : 3
  66. Format                      : AC-3
  67. Format/Info                 : Audio Coding 3
  68. Commercial name             : Dolby Digital
  69. Codec ID                    : A_AC3
  70. Duration                    : 2 h 11 min
  71. Bit rate mode               : Constant
  72. Bit rate                    : 448 kb/s
  73. Channel(s)                  : 6 channels
  74. Channel layout              : L R C LFE Ls Rs
  75. Sampling rate               : 48.0 kHz
  76. Frame rate                  : 31.250 FPS (1536 SPF)
  77. Bit depth                   : 16 bits
  78. Compression mode            : Lossy
  79. Stream size                 : 422 MiB (6%)
  80. Language                    : Spanish
  81. Service kind                : Complete Main
  82. Default                     : Yes
  83. Forced                      : Yes
  84.  
  85. Text #1
  86. ID                          : 4
  87. Format                      : PGS
  88. Muxing mode                 : zlib
  89. Codec ID                    : S_HDMV/PGS
  90. Codec ID/Info               : Picture based subtitle format used on BDs/HD-DVDs
  91. Duration                    : 2 h 11 min
  92. Bit rate                    : 39.8 kb/s
  93. Count of elements           : 4310
  94. Stream size                 : 37.4 MiB (0%)
  95. Title                       : English SDH
  96. Language                    : English
  97. Default                     : No
  98. Forced                      : No
  99.  
  100. Text #2
  101. ID                          : 5
  102. Format                      : PGS
  103. Muxing mode                 : zlib
  104. Codec ID                    : S_HDMV/PGS
  105. Codec ID/Info               : Picture based subtitle format used on BDs/HD-DVDs
  106. Duration                    : 2 h 10 min
  107. Bit rate                    : 30.6 kb/s
  108. Count of elements           : 3500
  109. Stream size                 : 28.6 MiB (0%)
  110. Language                    : Spanish
  111. Default                     : No
  112. Forced                      : No
  113.  
  114. Text #3
  115. ID                          : 6
  116. Format                      : UTF-8
  117. Codec ID                    : S_TEXT/UTF8
  118. Codec ID/Info               : UTF-8 Plain Text
  119. Duration                    : 2 h 10 min
  120. Bit rate                    : 52 b/s
  121. Count of elements           : 1728
  122. Stream size                 : 49.8 KiB (0%)
  123. Language                    : English
  124. Default                     : No
  125. Forced                      : No
  126.  
  127. Text #4
  128. ID                          : 7
  129. Format                      : UTF-8
  130. Codec ID                    : S_TEXT/UTF8
  131. Codec ID/Info               : UTF-8 Plain Text
  132. Duration                    : 2 h 11 min
  133. Bit rate                    : 63 b/s
  134. Count of elements           : 2155
  135. Stream size                 : 61.3 KiB (0%)
  136. Title                       : English SDH
  137. Language                    : English
  138. Default                     : No
  139. Forced                      : No
  140.  
  141. Text #5
  142. ID                          : 8
  143. Format                      : UTF-8
  144. Codec ID                    : S_TEXT/UTF8
  145. Codec ID/Info               : UTF-8 Plain Text
  146. Duration                    : 2 h 10 min
  147. Bit rate                    : 60 b/s
  148. Count of elements           : 1906
  149. Stream size                 : 57.8 KiB (0%)
  150. Language                    : Spanish
  151. Default                     : Yes
  152. Forced                      : Yes
  153.  
  154. Menu
  155. 00:00:00.000                : en:Chapter 01
  156. 00:08:18.790                : en:Chapter 02
  157. 00:15:11.285                : en:Chapter 03
  158. 00:25:22.396                : en:Chapter 04
  159. 00:31:57.624                : en:Chapter 05
  160. 00:39:00.255                : en:Chapter 06
  161. 00:50:07.713                : en:Chapter 07
  162. 01:01:28.810                : en:Chapter 08
  163. 01:08:51.502                : en:Chapter 09
  164. 01:16:40.471                : en:Chapter 10
  165. 01:24:29.356                : en:Chapter 11
  166. 01:34:00.677                : en:Chapter 12
  167. 01:43:01.175                : en:Chapter 13
  168. 01:52:53.850                : en:Chapter 14
  169. 02:00:44.446                : en:Chapter 15
RAW Paste Data
We use cookies for various purposes including analytics. By continuing to use Pastebin, you agree to our use of cookies as described in the Cookies Policy. OK, I Understand
Not a member of Pastebin yet?
Sign Up, it unlocks many cool features!
 
Top