Henry_Kr

SWRst-S02

Dec 10th, 2019
127
Never
Not a member of Pastebin yet? Sign Up, it unlocks many cool features!
  1. Video
  2. ID : 1
  3. Format : AVC
  4. Format/Info : Advanced Video Codec
  5. Format profile : High@L4
  6. Format settings : CABAC / 4 Ref Frames
  7. Format settings, CABAC : Yes
  8. Format settings, Reference : 4 frames
  9. Muxing mode : Header stripping
  10. Codec ID : V_MPEG4/ISO/AVC
  11. Duration : 22 min 3 s
  12. Bit rate : 3 254 kb/s
  13. Width : 1 920 pixels
  14. Height : 1 080 pixels
  15. Display aspect ratio : 16:9
  16. Frame rate mode : Constant
  17. Frame rate : 23.976 (24000/1001) FPS
  18. Color space : YUV
  19. Chroma subsampling : 4:2:0
  20. Bit depth : 8 bits
  21. Scan type : Progressive
  22. Bits/(Pixel*Frame) : 0.065
  23. Stream size : 513 MiB (86%)
  24. Title : Star.Wars.Resistance.S02E01.Ao.Desconhecido.1080p.WEB-DL.[CartoonNOW]
  25. Language : English
  26. Default : Yes
  27. Forced : No
  28.  
  29. Audio #1
  30. ID : 2
  31. Format : AC-3
  32. Format/Info : Audio Coding 3
  33. Commercial name : Dolby Digital
  34. Muxing mode : Header stripping
  35. Codec ID : A_AC3
  36. Duration : 22 min 3 s
  37. Bit rate mode : Constant
  38. Bit rate : 192 kb/s
  39. Channel(s) : 2 channels
  40. Channel layout : L R
  41. Sampling rate : 48.0 kHz
  42. Frame rate : 31.250 FPS (1536 SPF)
  43. Compression mode : Lossy
  44. Stream size : 30.3 MiB (5%)
  45. Title : AC3 2.0
  46. Language : Portuguese
  47. Service kind : Complete Main
  48. Default : Yes
  49. Forced : No
  50.  
  51. Audio #2
  52. ID : 3
  53. Format : E-AC-3
  54. Format/Info : Enhanced AC-3
  55. Commercial name : Dolby Digital Plus
  56. Muxing mode : Header stripping
  57. Codec ID : A_EAC3
  58. Duration : 22 min 3 s
  59. Bit rate mode : Constant
  60. Bit rate : 256 kb/s
  61. Channel(s) : 6 channels
  62. Channel layout : L R C LFE Ls Rs
  63. Sampling rate : 48.0 kHz
  64. Frame rate : 31.250 FPS (1536 SPF)
  65. Compression mode : Lossy
  66. Stream size : 40.4 MiB (7%)
  67. Title : E-AC3 5.1
  68. Language : English
  69. Service kind : Complete Main
  70. Default : No
  71. Forced : No
  72.  
  73. Text
  74. ID : 4
  75. Format : UTF-8
  76. Codec ID : S_TEXT/UTF8
  77. Codec ID/Info : UTF-8 Plain Text
  78. Title : Completa
  79. Language : Portuguese
  80. Default : No
  81. Forced : No
RAW Paste Data