Guest User

Untitled

a guest
May 31st, 2020
19
Never
Not a member of Pastebin yet? Sign Up, it unlocks many cool features!
  1. General
  2. Unique ID : 216182143816753706738290036210296929557 (0xA2A32A9A9F590E2A8C7DB58DDB47BD15)
  3. Complete name : The.Beyond.2017.WEB-DL.1080p.mkv
  4. Format : Matroska
  5. Format version : Version 4
  6. File size : 3.49 GiB
  7. Duration : 1 h 31 min
  8. Overall bit rate : 5 440 kb/s
  9. Encoded date : UTC 2020-05-31 08:27:45
  10. Writing application : mkvmerge v7.1.0 ('Good Love') 64bit built on Jul 27 2014 13:06:55
  11. Writing library : libebml v1.3.0 + libmatroska v1.4.1
  12.  
  13. Video
  14. ID : 1
  15. Format : AVC
  16. Format/Info : Advanced Video Codec
  17. Format profile : High@L4
  18. Format settings : CABAC / 5 Ref Frames
  19. Format settings, CABAC : Yes
  20. Format settings, Reference fra : 5 frames
  21. Codec ID : V_MPEG4/ISO/AVC
  22. Duration : 1 h 31 min
  23. Bit rate : 4 542 kb/s
  24. Width : 1 904 pixels
  25. Height : 800 pixels
  26. Display aspect ratio : 2.40:1
  27. Frame rate mode : Constant
  28. Frame rate : 23.976 (24000/1001) FPS
  29. Color space : YUV
  30. Chroma subsampling : 4:2:0
  31. Bit depth : 8 bits
  32. Scan type : Progressive
  33. Bits/(Pixel*Frame) : 0.124
  34. Stream size : 2.91 GiB (83%)
  35. Language : English
  36. Default : Yes
  37. Forced : No
  38. Color range : Limited
  39. Color primaries : BT.709
  40. Transfer characteristics : BT.709
  41. Matrix coefficients : BT.709
  42.  
  43. Audio #1
  44. ID : 2
  45. Format : AC-3
  46. Format/Info : Audio Coding 3
  47. Commercial name : Dolby Digital
  48. Codec ID : A_AC3
  49. Duration : 1 h 31 min
  50. Bit rate mode : Constant
  51. Bit rate : 448 kb/s
  52. Channel(s) : 6 channels
  53. Channel layout : L R C LFE Ls Rs
  54. Sampling rate : 48.0 kHz
  55. Frame rate : 31.250 FPS (1536 SPF)
  56. Compression mode : Lossy
  57. Stream size : 294 MiB (8%)
  58. Title : MVO | HDRezka Studio
  59. Language : Russian
  60. Service kind : Complete Main
  61. Default : Yes
  62. Forced : No
  63.  
  64. Audio #2
  65. ID : 3
  66. Format : AC-3
  67. Format/Info : Audio Coding 3
  68. Commercial name : Dolby Digital
  69. Codec ID : A_AC3
  70. Duration : 1 h 31 min
  71. Bit rate mode : Constant
  72. Bit rate : 448 kb/s
  73. Channel(s) : 6 channels
  74. Channel layout : L R C LFE Ls Rs
  75. Sampling rate : 48.0 kHz
  76. Frame rate : 31.250 FPS (1536 SPF)
  77. Compression mode : Lossy
  78. Stream size : 294 MiB (8%)
  79. Language : English
  80. Service kind : Complete Main
  81. Default : No
  82. Forced : No
  83.  
  84. Text #1
  85. ID : 4
  86. Format : UTF-8
  87. Codec ID : S_TEXT/UTF8
  88. Codec ID/Info : UTF-8 Plain Text
  89. Duration : 1 h 27 min
  90. Bit rate : 6 b/s
  91. Count of elements : 62
  92. Stream size : 4.26 KiB (0%)
  93. Title : Forced
  94. Language : Russian
  95. Default : Yes
  96. Forced : No
  97.  
  98. Text #2
  99. ID : 5
  100. Format : UTF-8
  101. Codec ID : S_TEXT/UTF8
  102. Codec ID/Info : UTF-8 Plain Text
  103. Duration : 1 h 28 min
  104. Bit rate : 84 b/s
  105. Count of elements : 1537
  106. Stream size : 54.9 KiB (0%)
  107. Language : English
  108. Default : No
  109. Forced : No
  110.  
  111. Menu
  112. 00:00:00.000 : en:Chapter 1
  113. 00:10:56.656 : en:Chapter 2
  114. 00:20:02.201 : en:Chapter 3
  115. 00:30:20.819 : en:Chapter 4
  116. 00:42:03.521 : en:Chapter 5
  117. 00:48:44.922 : en:Chapter 6
  118. 00:58:26.503 : en:Chapter 7
  119. 01:10:07.203 : en:Chapter 8
  120. 01:20:52.848 : en:Chapter 9
  121. 01:28:31.306 : en:Chapter 10
RAW Paste Data