SHARE
TWEET

Untitled

seleZennet Oct 22nd, 2019 79 Never
Not a member of Pastebin yet? Sign Up, it unlocks many cool features!
  1. General
  2. Unique ID                   : 162137718327632907136497387015411726299 (0x79FA96B401A9A66732F82E42EF81F7DB)
  3. Complete name               : D:\Video111\Spider-Man.Far.from.Home.2019.Lic.BDRip.1080p.seleZen.mkv
  4. Format                      : Matroska
  5. Format version              : Version 4
  6. File size                   : 8.25 GiB
  7. Duration                    : 2 h 9 min
  8. Overall bit rate            : 9 131 kb/s
  9. Movie name                  : Spider Man Far from Home 2019 from селезень
  10. Encoded date                : UTC 2019-10-22 22:24:05
  11. Writing application         : mkvmerge v22.0.0 ('At The End Of The World') 64-bit
  12. Writing library             : libebml v1.3.5 + libmatroska v1.4.8
  13.  
  14. Video
  15. ID                          : 1
  16. Format                      : AVC
  17. Format/Info                 : Advanced Video Codec
  18. Format profile              : High@L4.1
  19. Format settings             : CABAC / 5 Ref Frames
  20. Format settings, CABAC      : Yes
  21. Format settings, Reference  : 5 frames
  22. Codec ID                    : V_MPEG4/ISO/AVC
  23. Duration                    : 2 h 9 min
  24. Bit rate                    : 7 493 kb/s
  25. Width                       : 1 920 pixels
  26. Height                      : 804 pixels
  27. Display aspect ratio        : 2.40:1
  28. Frame rate mode             : Constant
  29. Frame rate                  : 23.976 (24000/1001) FPS
  30. Color space                 : YUV
  31. Chroma subsampling          : 4:2:0
  32. Bit depth                   : 8 bits
  33. Scan type                   : Progressive
  34. Bits/(Pixel*Frame)          : 0.202
  35. Stream size                 : 6.77 GiB (82%)
  36. Title                       : Encoded by seleZen
  37. Writing library             : x264 core 148 r2705kMod 3f5ed56
  38. Encoding settings           : cabac=1 / ref=5 / deblock=1:-2:-2 / analyse=0x3:0x113 / me=umh / subme=11 / psy=1 / fade_compensate=0.00 / psy_rd=1.01:0.02 / mixed_ref=1 / me_range=48 / chroma_me=1 / trellis=2 / 8x8dct=1 / cqm=0 / deadzone=21,11 / fast_pskip=0 / chroma_qp_offset=-3 / threads=24 / lookahead_threads=4 / sliced_threads=0 / nr=0 / decimate=0 / interlaced=0 / bluray_compat=0 / constrained_intra=0 / fgo=0 / bframes=9 / b_pyramid=2 / b_adapt=2 / b_bias=0 / direct=3 / weightb=1 / open_gop=0 / weightp=2 / keyint=240 / keyint_min=23 / scenecut=40 / intra_refresh=0 / rc_lookahead=50 / rc=2pass / mbtree=0 / bitrate=7493 / ratetol=1.0 / qcomp=0.60 / qpmin=0 / qpmax=51 / qpstep=4 / cplxblur=20.0 / qblur=0.5 / vbv_maxrate=50000 / vbv_bufsize=62500 / nal_hrd=none / filler=0 / ip_ratio=1.40 / pb_ratio=1.30 / aq=3:0.80
  39. Language                    : English
  40. Default                     : Yes
  41. Forced                      : No
  42.  
  43. Audio #1
  44. ID                          : 2
  45. Format                      : AC-3
  46. Format/Info                 : Audio Coding 3
  47. Commercial name             : Dolby Digital
  48. Codec ID                    : A_AC3
  49. Duration                    : 2 h 9 min
  50. Bit rate mode               : Constant
  51. Bit rate                    : 640 kb/s
  52. Channel(s)                  : 6 channels
  53. Channel layout              : L R C LFE Ls Rs
  54. Sampling rate               : 48.0 kHz
  55. Frame rate                  : 31.250 FPS (1536 SPF)
  56. Bit depth                   : 16 bits
  57. Compression mode            : Lossy
  58. Stream size                 : 592 MiB (7%)
  59. Title                       : Dub [License]
  60. Language                    : Russian
  61. Service kind                : Complete Main
  62. Default                     : Yes
  63. Forced                      : Yes
  64.  
  65. Audio #2
  66. ID                          : 3
  67. Format                      : AC-3
  68. Format/Info                 : Audio Coding 3
  69. Commercial name             : Dolby Digital
  70. Codec ID                    : A_AC3
  71. Duration                    : 2 h 9 min
  72. Bit rate mode               : Constant
  73. Bit rate                    : 192 kb/s
  74. Channel(s)                  : 2 channels
  75. Channel layout              : L R
  76. Sampling rate               : 48.0 kHz
  77. Frame rate                  : 31.250 FPS (1536 SPF)
  78. Bit depth                   : 16 bits
  79. Compression mode            : Lossy
  80. Stream size                 : 178 MiB (2%)
  81. Title                       : MVO [HDRezka Studio]
  82. Language                    : Russian
  83. Service kind                : Complete Main
  84. Default                     : No
  85. Forced                      : No
  86.  
  87. Audio #3
  88. ID                          : 4
  89. Format                      : AC-3
  90. Format/Info                 : Audio Coding 3
  91. Commercial name             : Dolby Digital
  92. Codec ID                    : A_AC3
  93. Duration                    : 2 h 9 min
  94. Bit rate mode               : Constant
  95. Bit rate                    : 160 kb/s
  96. Channel(s)                  : 2 channels
  97. Channel layout              : L R
  98. Sampling rate               : 48.0 kHz
  99. Frame rate                  : 31.250 FPS (1536 SPF)
  100. Bit depth                   : 16 bits
  101. Compression mode            : Lossy
  102. Stream size                 : 148 MiB (2%)
  103. Title                       : Dub
  104. Language                    : Ukrainian
  105. Service kind                : Complete Main
  106. Default                     : No
  107. Forced                      : No
  108.  
  109. Audio #4
  110. ID                          : 5
  111. Format                      : AC-3
  112. Format/Info                 : Audio Coding 3
  113. Commercial name             : Dolby Digital
  114. Codec ID                    : A_AC3
  115. Duration                    : 2 h 9 min
  116. Bit rate mode               : Constant
  117. Bit rate                    : 640 kb/s
  118. Channel(s)                  : 6 channels
  119. Channel layout              : L R C LFE Ls Rs
  120. Sampling rate               : 48.0 kHz
  121. Frame rate                  : 31.250 FPS (1536 SPF)
  122. Bit depth                   : 16 bits
  123. Compression mode            : Lossy
  124. Stream size                 : 592 MiB (7%)
  125. Title                       : Original
  126. Language                    : English
  127. Service kind                : Complete Main
  128. Default                     : No
  129. Forced                      : No
  130.  
  131. Text #1
  132. ID                          : 6
  133. Format                      : UTF-8
  134. Codec ID                    : S_TEXT/UTF8
  135. Codec ID/Info               : UTF-8 Plain Text
  136. Duration                    : 2 h 8 min
  137. Bit rate                    : 0 b/s
  138. Count of elements           : 13
  139. Stream size                 : 582 Bytes (0%)
  140. Title                       : Forced
  141. Language                    : Russian
  142. Default                     : Yes
  143. Forced                      : Yes
  144.  
  145. Text #2
  146. ID                          : 7
  147. Format                      : UTF-8
  148. Codec ID                    : S_TEXT/UTF8
  149. Codec ID/Info               : UTF-8 Plain Text
  150. Duration                    : 2 h 8 min
  151. Bit rate                    : 92 b/s
  152. Count of elements           : 1666
  153. Stream size                 : 86.8 KiB (0%)
  154. Title                       : Full
  155. Language                    : Russian
  156. Default                     : No
  157. Forced                      : No
  158.  
  159. Text #3
  160. ID                          : 8
  161. Format                      : UTF-8
  162. Codec ID                    : S_TEXT/UTF8
  163. Codec ID/Info               : UTF-8 Plain Text
  164. Duration                    : 2 h 8 min
  165. Bit rate                    : 92 b/s
  166. Count of elements           : 1666
  167. Stream size                 : 86.8 KiB (0%)
  168. Title                       : Full [Елена, Лев Вержбицкие]
  169. Language                    : Russian
  170. Default                     : No
  171. Forced                      : No
  172.  
  173. Text #4
  174. ID                          : 9
  175. Format                      : UTF-8
  176. Codec ID                    : S_TEXT/UTF8
  177. Codec ID/Info               : UTF-8 Plain Text
  178. Duration                    : 2 h 8 min
  179. Bit rate                    : 94 b/s
  180. Count of elements           : 1759
  181. Stream size                 : 89.3 KiB (0%)
  182. Title                       : Full
  183. Language                    : Ukrainian
  184. Default                     : No
  185. Forced                      : No
  186.  
  187. Text #5
  188. ID                          : 10
  189. Format                      : UTF-8
  190. Codec ID                    : S_TEXT/UTF8
  191. Codec ID/Info               : UTF-8 Plain Text
  192. Duration                    : 2 h 7 min
  193. Bit rate                    : 62 b/s
  194. Count of elements           : 1749
  195. Stream size                 : 58.2 KiB (0%)
  196. Title                       : Full
  197. Language                    : English
  198. Default                     : No
  199. Forced                      : No
  200.  
  201. Text #6
  202. ID                          : 11
  203. Format                      : UTF-8
  204. Codec ID                    : S_TEXT/UTF8
  205. Codec ID/Info               : UTF-8 Plain Text
  206. Duration                    : 2 h 8 min
  207. Bit rate                    : 68 b/s
  208. Count of elements           : 1929
  209. Stream size                 : 64.0 KiB (0%)
  210. Title                       : SDH
  211. Language                    : English
  212. Default                     : No
  213. Forced                      : No
  214.  
  215. Menu
  216. 00:00:00.000                : en:00:00:00.000
  217. 00:09:35.033                : en:00:09:35.033
  218. 00:16:06.716                : en:00:16:06.716
  219. 00:25:18.475                : en:00:25:18.475
  220. 00:35:26.499                : en:00:35:26.499
  221. 00:41:57.014                : en:00:41:57.014
  222. 00:49:50.029                : en:00:49:50.029
  223. 00:57:09.509                : en:00:57:09.509
  224. 01:04:50.637                : en:01:04:50.637
  225. 01:15:57.219                : en:01:15:57.219
  226. 01:22:49.089                : en:01:22:49.089
  227. 01:29:25.193                : en:01:29:25.193
  228. 01:36:43.256                : en:01:36:43.256
  229. 01:44:47.364                : en:01:44:47.364
  230. 01:52:17.397                : en:01:52:17.397
  231. 01:57:45.433                : en:01:57:45.433
RAW Paste Data
We use cookies for various purposes including analytics. By continuing to use Pastebin, you agree to our use of cookies as described in the Cookies Policy. OK, I Understand
 
Top