Guest User

ffmpeg output log

a guest
Nov 1st, 2020
32
Never
Not a member of Pastebin yet? Sign Up, it unlocks many cool features!
  1. ffmpeg version 3.4.8-0ubuntu0.2 Copyright (c) 2000-2020 the FFmpeg developers
  2. built with gcc 7 (Ubuntu 7.5.0-3ubuntu1~18.04)
  3. configuration: --prefix=/usr --extra-version=0ubuntu0.2 --toolchain=hardened --libdir=/usr/lib/x86_64-linux-gnu --incdir=/usr/include/x86_64-linux-gnu --enable-gpl --disable-stripping --enable-avresample --enable-avisynth --enable-gnutls --enable-ladspa --enable-libass --enable-libbluray --enable-libbs2b --enable-libcaca --enable-libcdio --enable-libflite --enable-libfontconfig --enable-libfreetype --enable-libfribidi --enable-libgme --enable-libgsm --enable-libmp3lame --enable-libmysofa --enable-libopenjpeg --enable-libopenmpt --enable-libopus --enable-libpulse --enable-librubberband --enable-librsvg --enable-libshine --enable-libsnappy --enable-libsoxr --enable-libspeex --enable-libssh --enable-libtheora --enable-libtwolame --enable-libvorbis --enable-libvpx --enable-libwavpack --enable-libwebp --enable-libx265 --enable-libxml2 --enable-libxvid --enable-libzmq --enable-libzvbi --enable-omx --enable-openal --enable-opengl --enable-sdl2 --enable-libdc1394 --enable-libdrm --enable-libiec61883 --enable-chromaprint --enable-frei0r --enable-libopencv --enable-libx264 --enable-shared
  4. libavutil 55. 78.100 / 55. 78.100
  5. libavcodec 57.107.100 / 57.107.100
  6. libavformat 57. 83.100 / 57. 83.100
  7. libavdevice 57. 10.100 / 57. 10.100
  8. libavfilter 6.107.100 / 6.107.100
  9. libavresample 3. 7. 0 / 3. 7. 0
  10. libswscale 4. 8.100 / 4. 8.100
  11. libswresample 2. 9.100 / 2. 9.100
  12. libpostproc 54. 7.100 / 54. 7.100
  13. Input #0, rtsp, from 'rtsp://something:something@fdsfsdfdf':
  14. Metadata:
  15. title : RTSP server
  16. Duration: N/A, start: 0.000000, bitrate: N/A
  17. Stream #0:0: Video: mpeg4 (Simple Profile), yuv420p, 640x480 [SAR 1:1 DAR 4:3], 30 tbr, 30k tbn, 1k tbc
  18. Stream #0:1: Audio: amr_nb, 8000 Hz, mono, flt
  19. Stream mapping:
  20. Stream #0:0 -> #0:0 (mpeg4 (native) -> h264 (libx264))
  21. Stream #0:1 -> #0:1 (amr_nb (amrnb) -> aac (native))
  22. Press [q] to stop, [?] for help
  23. [amrnb @ 0x5641eb7f5480] Multiple frames in a packet.
  24. [aac @ 0x5641eb8117c0] Too many bits 8832.000000 > 6144 per frame requested, clamping to max
  25. [libx264 @ 0x5641eb810320] using SAR=1/1B time=-577014:32:22.77 bitrate= -0.0kbits/s speed=N/A
  26. [libx264 @ 0x5641eb810320] using cpu capabilities: MMX2 SSE2Fast SSSE3 SSE4.2 AVX FMA3 BMI2 AVX2 AVX512
  27. [libx264 @ 0x5641eb810320] profile High, level 2.2
  28. [libx264 @ 0x5641eb810320] 264 - core 152 r2854 e9a5903 - H.264/MPEG-4 AVC codec - Copyleft 2003-2017 - http://www.videolan.org/x264.html - options: cabac=1 ref=3 deblock=1:0:0 analyse=0x3:0x113 me=hex subme=7 psy=1 psy_rd=1.00:0.00 mixed_ref=1 me_range=16 chroma_me=1 trellis=1 8x8dct=1 cqm=0 deadzone=21,11 fast_pskip=1 chroma_qp_offset=-2 threads=3 lookahead_threads=1 sliced_threads=0 nr=0 decimate=1 interlaced=0 bluray_compat=0 constrained_intra=0 bframes=3 b_pyramid=2 b_adapt=1 b_bias=0 direct=1 weightb=1 open_gop=0 weightp=2 keyint=250 keyint_min=5 scenecut=40 intra_refresh=0 rc_lookahead=40 rc=cbr mbtree=1 bitrate=100 ratetol=1.0 qcomp=0.60 qpmin=0 qpmax=69 qpstep=4 vbv_maxrate=100 vbv_bufsize=50 nal_hrd=none filler=0 ip_ratio=1.40 aq=1:1.00
  29. Output #0, mp4, to 'output2.mp4':
  30. Metadata:
  31. title : RTSP server
  32. encoder : Lavf57.83.100
  33. Stream #0:0: Video: h264 (libx264) (avc1 / 0x31637661), yuv420p, 640x480 [SAR 1:1 DAR 4:3], q=-1--1, 100 kb/s, 5 fps, 10240 tbn, 5 tbc
  34. Metadata:
  35. encoder : Lavc57.107.100 libx264
  36. Side data:
  37. cpb: bitrate max/min/avg: 100000/0/100000 buffer size: 50000 vbv_delay: -1
  38. Stream #0:1: Audio: aac (LC) (mp4a / 0x6134706D), 8000 Hz, mono, fltp, 48 kb/s
  39. Metadata:
  40. encoder : Lavc57.107.100 aac
  41. frame= 49 fps=4.3 q=-1.0 Lsize= 134kB time=00:00:10.03 bitrate= 109.8kbits/s dup=21 drop=0 speed=0.877x
  42. video:94kB audio:37kB subtitle:0kB other streams:0kB global headers:0kB muxing overhead: 2.396443%
  43. [libx264 @ 0x5641eb810320] frame I:9 Avg QP:15.99 size: 4128
  44. [libx264 @ 0x5641eb810320] frame P:18 Avg QP:21.51 size: 2776
  45. [libx264 @ 0x5641eb810320] frame B:22 Avg QP:21.25 size: 397
  46. [libx264 @ 0x5641eb810320] consecutive B-frames: 26.5% 32.7% 24.5% 16.3%
  47. [libx264 @ 0x5641eb810320] mb I I16..4: 62.3% 37.5% 0.2%
  48. [libx264 @ 0x5641eb810320] mb P I16..4: 11.8% 17.6% 0.0% P16..4: 49.1% 2.3% 1.0% 0.0% 0.0% skip:18.1%
  49. [libx264 @ 0x5641eb810320] mb B I16..4: 0.5% 0.4% 0.0% B16..8: 19.7% 0.3% 0.0% direct: 2.4% skip:76.8% L0:35.5% L1:64.3% BI: 0.2%
  50. [libx264 @ 0x5641eb810320] 8x8 transform intra:45.8% inter:99.5%
  51. [libx264 @ 0x5641eb810320] coded y,uvDC,uvAC intra: 11.2% 64.6% 12.6% inter: 2.2% 12.7% 0.4%
  52. [libx264 @ 0x5641eb810320] i16 v,h,dc,p: 64% 25% 10% 1%
  53. [libx264 @ 0x5641eb810320] i8 v,h,dc,ddl,ddr,vr,hd,vl,hu: 27% 17% 52% 1% 0% 0% 0% 0% 1%
  54. [libx264 @ 0x5641eb810320] i4 v,h,dc,ddl,ddr,vr,hd,vl,hu: 60% 19% 15% 1% 3% 1% 0% 0% 0%
  55. [libx264 @ 0x5641eb810320] i8c dc,h,v,p: 41% 31% 27% 1%
  56. [libx264 @ 0x5641eb810320] Weighted P-Frames: Y:0.0% UV:0.0%
  57. [libx264 @ 0x5641eb810320] ref P L0: 86.2% 0.4% 9.4% 4.0%
  58. [libx264 @ 0x5641eb810320] ref B L0: 94.1% 5.9%
  59. [libx264 @ 0x5641eb810320] ref B L1: 99.9% 0.1%
  60. [libx264 @ 0x5641eb810320] kb/s:78.24
  61. [aac @ 0x5641eb8117c0] Qavg: 61800.957
  62.  
  63. real 0m19.527s
  64. user 0m2.510s
  65. sys 0m0.102s
  66.  
RAW Paste Data