iMN0

The.Naked.Gun.From.the.Files.of.Police.Squad!.1988.BluRay.1080p.DTS-HD.MA.5.1.AVC.REMUX-FraMeSToR.mkv

Jul 12th, 2018
197
Never
Not a member of Pastebin yet? Sign Up, it unlocks many cool features!
  1. General
  2. Unique ID : 339200617628183517275975480153938954266 (0xFF2FA9A4610E28BE168D0C7AFD85881A)
  3. Complete name : The.Naked.Gun.From.the.Files.of.Police.Squad!.1988.BluRay.1080p.DTS-HD.MA.5.1.AVC.REMUX-FraMeSToR.mkv
  4. Format : Matroska
  5. Format version : Version 4 / Version 2
  6. File size : 24.7 GiB
  7. Duration : 1 h 25 min
  8. Overall bit rate mode : Variable
  9. Overall bit rate : 41.6 Mb/s
  10. Movie name : The Naked Gun: From the Files of Police Squad!
  11. Encoded date : UTC 2017-05-16 15:33:00
  12. Writing application : mkvmerge v11.0.0 ('Alive') 64bit
  13. Writing library : libebml v1.3.4 + libmatroska v1.4.5
  14.  
  15. Video
  16. ID : 1
  17. Format : AVC
  18. Format/Info : Advanced Video Codec
  19. Format profile : High@L4.1
  20. Format settings : CABAC / 4 Ref Frames
  21. Format settings, CABAC : Yes
  22. Format settings, ReFrames : 4 frames
  23. Codec ID : V_MPEG4/ISO/AVC
  24. Duration : 1 h 25 min
  25. Bit rate mode : Variable
  26. Bit rate : 36.8 Mb/s
  27. Maximum bit rate : 38.0 Mb/s
  28. Width : 1 920 pixels
  29. Height : 1 080 pixels
  30. Display aspect ratio : 16:9
  31. Frame rate mode : Constant
  32. Frame rate : 23.976 (24000/1001) FPS
  33. Color space : YUV
  34. Chroma subsampling : 4:2:0
  35. Bit depth : 8 bits
  36. Scan type : Progressive
  37. Bits/(Pixel*Frame) : 0.740
  38. Stream size : 21.8 GiB (88%)
  39. Default : Yes
  40. Forced : No
  41.  
  42. Audio
  43. ID : 2
  44. Format : DTS
  45. Format/Info : Digital Theater Systems
  46. Format profile : MA / Core
  47. Codec ID : A_DTS
  48. Duration : 1 h 25 min
  49. Bit rate mode : Variable / Constant
  50. Bit rate : 4 186 kb/s / 1 509 kb/s
  51. Channel(s) : 6 channels
  52. Channel positions : Front: L C R, Side: L R, LFE
  53. Sampling rate : 48.0 kHz
  54. Frame rate : 93.750 FPS (512 SPF)
  55. Bit depth : 24 bits
  56. Compression mode : Lossless / Lossy
  57. Stream size : 2.49 GiB (10%)
  58. Title : DTS-HD MA 5.1
  59. Language : English
  60. Default : Yes
  61. Forced : No
  62.  
  63. Text #1
  64. ID : 3
  65. Format : PGS
  66. Codec ID : S_HDMV/PGS
  67. Codec ID/Info : Picture based subtitle format used on BDs/HD-DVDs
  68. Duration : 1 h 20 min
  69. Bit rate : 36.6 kb/s
  70. Count of elements : 1676
  71. Stream size : 21.2 MiB (0%)
  72. Title : English
  73. Language : English
  74. Default : Yes
  75. Forced : No
  76.  
  77. Text #2
  78. ID : 4
  79. Format : PGS
  80. Codec ID : S_HDMV/PGS
  81. Codec ID/Info : Picture based subtitle format used on BDs/HD-DVDs
  82. Duration : 1 h 24 min
  83. Bit rate : 34.8 kb/s
  84. Count of elements : 1718
  85. Stream size : 21.0 MiB (0%)
  86. Title : Spanish (Castilian)
  87. Language : Spanish
  88. Default : No
  89. Forced : No
  90.  
  91. Text #3
  92. ID : 5
  93. Format : PGS
  94. Codec ID : S_HDMV/PGS
  95. Codec ID/Info : Picture based subtitle format used on BDs/HD-DVDs
  96. Duration : 1 h 24 min
  97. Bit rate : 30.8 kb/s
  98. Count of elements : 1696
  99. Stream size : 18.7 MiB (0%)
  100. Title : French
  101. Language : French
  102. Default : No
  103. Forced : No
  104.  
  105. Text #4
  106. ID : 6
  107. Format : PGS
  108. Codec ID : S_HDMV/PGS
  109. Codec ID/Info : Picture based subtitle format used on BDs/HD-DVDs
  110. Duration : 1 h 24 min
  111. Bit rate : 38.1 kb/s
  112. Count of elements : 1716
  113. Stream size : 23.0 MiB (0%)
  114. Title : Malay
  115. Language : Malay
  116. Default : No
  117. Forced : No
  118.  
  119. Text #5
  120. ID : 7
  121. Format : PGS
  122. Codec ID : S_HDMV/PGS
  123. Codec ID/Info : Picture based subtitle format used on BDs/HD-DVDs
  124. Duration : 1 h 24 min
  125. Bit rate : 24.8 kb/s
  126. Count of elements : 1558
  127. Stream size : 15.0 MiB (0%)
  128. Title : Chinese (Cantonese)
  129. Language : Chinese
  130. Default : No
  131. Forced : No
  132.  
  133. Text #6
  134. ID : 8
  135. Format : PGS
  136. Codec ID : S_HDMV/PGS
  137. Codec ID/Info : Picture based subtitle format used on BDs/HD-DVDs
  138. Duration : 1 h 24 min
  139. Bit rate : 32.4 kb/s
  140. Count of elements : 1696
  141. Stream size : 19.5 MiB (0%)
  142. Title : Danish
  143. Language : Danish
  144. Default : No
  145. Forced : No
  146.  
  147. Text #7
  148. ID : 9
  149. Format : PGS
  150. Codec ID : S_HDMV/PGS
  151. Codec ID/Info : Picture based subtitle format used on BDs/HD-DVDs
  152. Duration : 1 h 24 min
  153. Bit rate : 34.8 kb/s
  154. Count of elements : 1696
  155. Stream size : 21.0 MiB (0%)
  156. Title : German
  157. Language : German
  158. Default : No
  159. Forced : No
  160.  
  161. Text #8
  162. ID : 10
  163. Format : PGS
  164. Codec ID : S_HDMV/PGS
  165. Codec ID/Info : Picture based subtitle format used on BDs/HD-DVDs
  166. Duration : 1 h 24 min
  167. Bit rate : 34.0 kb/s
  168. Count of elements : 1730
  169. Stream size : 20.5 MiB (0%)
  170. Title : Croatian
  171. Language : Croatian
  172. Default : No
  173. Forced : No
  174.  
  175. Text #9
  176. ID : 11
  177. Format : PGS
  178. Codec ID : S_HDMV/PGS
  179. Codec ID/Info : Picture based subtitle format used on BDs/HD-DVDs
  180. Duration : 1 h 24 min
  181. Bit rate : 33.1 kb/s
  182. Count of elements : 1702
  183. Stream size : 19.9 MiB (0%)
  184. Title : Italian
  185. Language : Italian
  186. Default : No
  187. Forced : No
  188.  
  189. Text #10
  190. ID : 12
  191. Format : PGS
  192. Codec ID : S_HDMV/PGS
  193. Codec ID/Info : Picture based subtitle format used on BDs/HD-DVDs
  194. Duration : 1 h 21 min
  195. Bit rate : 23.1 kb/s
  196. Count of elements : 1586
  197. Stream size : 13.5 MiB (0%)
  198. Title : Japanese
  199. Language : Japanese
  200. Default : No
  201. Forced : No
  202.  
  203. Text #11
  204. ID : 13
  205. Format : PGS
  206. Codec ID : S_HDMV/PGS
  207. Codec ID/Info : Picture based subtitle format used on BDs/HD-DVDs
  208. Duration : 1 h 24 min
  209. Bit rate : 17.0 kb/s
  210. Count of elements : 1566
  211. Stream size : 10.3 MiB (0%)
  212. Title : Korean
  213. Language : Korean
  214. Default : No
  215. Forced : No
  216.  
  217. Text #12
  218. ID : 14
  219. Format : PGS
  220. Codec ID : S_HDMV/PGS
  221. Codec ID/Info : Picture based subtitle format used on BDs/HD-DVDs
  222. Duration : 1 h 24 min
  223. Bit rate : 31.4 kb/s
  224. Count of elements : 1704
  225. Stream size : 19.0 MiB (0%)
  226. Title : Dutch
  227. Language : Dutch
  228. Default : No
  229. Forced : No
  230.  
  231. Text #13
  232. ID : 15
  233. Format : PGS
  234. Codec ID : S_HDMV/PGS
  235. Codec ID/Info : Picture based subtitle format used on BDs/HD-DVDs
  236. Duration : 1 h 24 min
  237. Bit rate : 31.0 kb/s
  238. Count of elements : 1694
  239. Stream size : 18.7 MiB (0%)
  240. Title : Norwegian
  241. Language : Norwegian
  242. Default : No
  243. Forced : No
  244.  
  245. Text #14
  246. ID : 16
  247. Format : PGS
  248. Codec ID : S_HDMV/PGS
  249. Codec ID/Info : Picture based subtitle format used on BDs/HD-DVDs
  250. Duration : 1 h 24 min
  251. Bit rate : 33.3 kb/s
  252. Count of elements : 1728
  253. Stream size : 20.1 MiB (0%)
  254. Title : Romanian
  255. Language : Romanian
  256. Default : No
  257. Forced : No
  258.  
  259. Text #15
  260. ID : 17
  261. Format : PGS
  262. Codec ID : S_HDMV/PGS
  263. Codec ID/Info : Picture based subtitle format used on BDs/HD-DVDs
  264. Duration : 1 h 24 min
  265. Bit rate : 26.6 kb/s
  266. Count of elements : 1554
  267. Stream size : 16.1 MiB (0%)
  268. Title : Slovenian
  269. Language : Slovenian
  270. Default : No
  271. Forced : No
  272.  
  273. Text #16
  274. ID : 18
  275. Format : PGS
  276. Codec ID : S_HDMV/PGS
  277. Codec ID/Info : Picture based subtitle format used on BDs/HD-DVDs
  278. Duration : 1 h 24 min
  279. Bit rate : 33.0 kb/s
  280. Count of elements : 1736
  281. Stream size : 20.0 MiB (0%)
  282. Title : Serbian
  283. Language : Serbian
  284. Default : No
  285. Forced : No
  286.  
  287. Text #17
  288. ID : 19
  289. Format : PGS
  290. Codec ID : S_HDMV/PGS
  291. Codec ID/Info : Picture based subtitle format used on BDs/HD-DVDs
  292. Duration : 1 h 24 min
  293. Bit rate : 34.3 kb/s
  294. Count of elements : 1698
  295. Stream size : 20.7 MiB (0%)
  296. Title : Finnish
  297. Language : Finnish
  298. Default : No
  299. Forced : No
  300.  
  301. Text #18
  302. ID : 20
  303. Format : PGS
  304. Codec ID : S_HDMV/PGS
  305. Codec ID/Info : Picture based subtitle format used on BDs/HD-DVDs
  306. Duration : 1 h 24 min
  307. Bit rate : 32.6 kb/s
  308. Count of elements : 1698
  309. Stream size : 19.6 MiB (0%)
  310. Title : Swedish
  311. Language : Swedish
  312. Default : No
  313. Forced : No
  314.  
  315. Text #19
  316. ID : 21
  317. Format : PGS
  318. Codec ID : S_HDMV/PGS
  319. Codec ID/Info : Picture based subtitle format used on BDs/HD-DVDs
  320. Duration : 1 h 24 min
  321. Bit rate : 27.8 kb/s
  322. Count of elements : 1564
  323. Stream size : 16.8 MiB (0%)
  324. Title : Thai
  325. Language : Thai
  326. Default : No
  327. Forced : No
  328.  
  329. Text #20
  330. ID : 22
  331. Format : PGS
  332. Codec ID : S_HDMV/PGS
  333. Codec ID/Info : Picture based subtitle format used on BDs/HD-DVDs
  334. Duration : 1 h 24 min
  335. Bit rate : 34.7 kb/s
  336. Count of elements : 1728
  337. Stream size : 21.0 MiB (0%)
  338. Title : Turkish
  339. Language : Turkish
  340. Default : No
  341. Forced : No
  342.  
  343. Menu
  344. 00:00:00.000 : en:Beirut Of All Evil
  345. 00:03:10.774 : en:Opening Credits
  346. 00:05:10.060 : en:Going Overboard
  347. 00:07:33.745 : en:Time Wounds All Heels
  348. 00:09:59.057 : en:Perfectly Frank
  349. 00:13:25.013 : en:Press Leak
  350. 00:15:57.456 : en:Money Talks
  351. 00:17:55.199 : en:Fishing For Clues
  352. 00:21:34.627 : en:Lady In Red
  353. 00:25:16.724 : en:Fiber Optics
  354. 00:28:36.757 : en:Service For Two
  355. 00:31:06.073 : en:Driving Lessons
  356. 00:35:05.186 : en:Safe Sex
  357. 00:41:12.887 : en:I'm Into Something Good
  358. 00:43:14.550 : en:House Of Cards
  359. 00:48:13.641 : en:Leftovers
  360. 00:51:55.362 : en:Dead Meat
  361. 00:53:22.908 : en:Table Manners
  362. 00:57:28.654 : en:Bad News
  363. 00:59:45.707 : en:Op-erratic
  364. 01:04:32.619 : en:The Umpire Strikes Back
  365. 01:09:24.494 : en:I Love L.A.
  366. 01:11:46.594 : en:Seventh Inning Stretch
  367. 01:14:23.459 : en:God Save The Queen
  368. 01:16:52.650 : en:Fall Guy
  369. 01:18:39.256 : en:Funny Face
  370. 01:21:51.406 : en:End Credits
RAW Paste Data