Guest User

Ratatouille.2007.1080p.BluRay.REMUX.AVC.DTS-HD.MA.5.1-EPSiLON

a guest
May 18th, 2019
92
Never
Not a member of Pastebin yet? Sign Up, it unlocks many cool features!
  1. General
  2. Unique ID                                : 197105478291889490141957708735506605296 (0x944922607842A5BFB01118F1F37CE4F0)
  3. Complete name                            : Ratatouille.2007.1080p.BluRay.REMUX.AVC.DTS-HD.MA.5.1-EPSiLON.mkv
  4. Format                                   : Matroska
  5. Format version                           : Version 4
  6. File size                                : 21.5 GiB
  7. Duration                                 : 1 h 50 min
  8. Overall bit rate mode                    : Variable
  9. Overall bit rate                         : 27.9 Mb/s
  10. Encoded date                             : UTC 2017-05-02 08:13:12
  11. Writing application                      : mkvmerge v11.0.0 ('Alive') 32bit
  12. Writing library                          : libebml v1.3.4 + libmatroska v1.4.5
  13.  
  14. Video
  15. ID                                       : 1
  16. Format                                   : AVC
  17. Format/Info                              : Advanced Video Codec
  18. Format profile                           : High@L4.1
  19. Format settings                          : CABAC / 4 Ref Frames
  20. Format settings, CABAC                   : Yes
  21. Format settings, Reference frames        : 4 frames
  22. Format settings, GOP                     : M=3, N=12
  23. Codec ID                                 : V_MPEG4/ISO/AVC
  24. Duration                                 : 1 h 50 min
  25. Bit rate mode                            : Variable
  26. Bit rate                                 : 23.4 Mb/s
  27. Maximum bit rate                         : 34.0 Mb/s
  28. Width                                    : 1 920 pixels
  29. Height                                   : 1 080 pixels
  30. Display aspect ratio                     : 16:9
  31. Frame rate mode                          : Constant
  32. Frame rate                               : 23.976 (24000/1001) FPS
  33. Standard                                 : NTSC
  34. Color space                              : YUV
  35. Chroma subsampling                       : 4:2:0
  36. Bit depth                                : 8 bits
  37. Scan type                                : Progressive
  38. Bits/(Pixel*Frame)                       : 0.471
  39. Stream size                              : 18.1 GiB (84%)
  40. Title                                    : MPEG-4 AVC Video / 23426 kbps / 1080p / 23,976 fps / 16:9 / High Profile 4.1
  41. Language                                 : English
  42. Default                                  : Yes
  43. Forced                                   : No
  44. Color range                              : Limited
  45. Color primaries                          : BT.709
  46. Transfer characteristics                 : BT.709
  47. Matrix coefficients                      : BT.709
  48.  
  49. Audio
  50. ID                                       : 2
  51. Format                                   : DTS XLL
  52. Format/Info                              : Digital Theater Systems
  53. Commercial name                          : DTS-HD Master Audio
  54. Codec ID                                 : A_DTS
  55. Duration                                 : 1 h 50 min
  56. Bit rate mode                            : Variable
  57. Bit rate                                 : 4 101 kb/s
  58. Channel(s)                               : 6 channels
  59. Channel layout                           : C L R Ls Rs LFE
  60. Sampling rate                            : 48.0 kHz
  61. Frame rate                               : 93.750 FPS (512 SPF)
  62. Bit depth                                : 24 bits
  63. Compression mode                         : Lossless
  64. Stream size                              : 3.17 GiB (15%)
  65. Title                                    : DTS-HD Master Audio / 4101 kbps / 5.1 / 48 kHz / 24-bit
  66. Language                                 : English
  67. Default                                  : Yes
  68. Forced                                   : No
  69.  
  70. Text #1
  71. ID                                       : 3
  72. Format                                   : PGS
  73. Codec ID                                 : S_HDMV/PGS
  74. Codec ID/Info                            : Picture based subtitle format used on BDs/HD-DVDs
  75. Duration                                 : 1 h 42 min
  76. Bit rate                                 : 35.7 kb/s
  77. Count of elements                        : 2603
  78. Stream size                              : 26.1 MiB (0%)
  79. Language                                 : English
  80. Default                                  : No
  81. Forced                                   : No
  82.  
  83. Text #2
  84. ID                                       : 4
  85. Format                                   : PGS
  86. Codec ID                                 : S_HDMV/PGS
  87. Codec ID/Info                            : Picture based subtitle format used on BDs/HD-DVDs
  88. Duration                                 : 1 h 42 min
  89. Bit rate                                 : 40.4 kb/s
  90. Count of elements                        : 3202
  91. Stream size                              : 29.5 MiB (0%)
  92. Title                                    : SDH
  93. Language                                 : English
  94. Default                                  : No
  95. Forced                                   : No
  96.  
  97. Text #3
  98. ID                                       : 5
  99. Format                                   : PGS
  100. Codec ID                                 : S_HDMV/PGS
  101. Codec ID/Info                            : Picture based subtitle format used on BDs/HD-DVDs
  102. Duration                                 : 1 h 42 min
  103. Bit rate                                 : 22.9 kb/s
  104. Count of elements                        : 2679
  105. Stream size                              : 16.8 MiB (0%)
  106. Language                                 : Arabic
  107. Default                                  : No
  108. Forced                                   : No
  109.  
  110. Text #4
  111. ID                                       : 6
  112. Format                                   : PGS
  113. Codec ID                                 : S_HDMV/PGS
  114. Codec ID/Info                            : Picture based subtitle format used on BDs/HD-DVDs
  115. Duration                                 : 1 h 42 min
  116. Bit rate                                 : 38.5 kb/s
  117. Count of elements                        : 2679
  118. Stream size                              : 28.1 MiB (0%)
  119. Language                                 : Bulgarian
  120. Default                                  : No
  121. Forced                                   : No
  122.  
  123. Text #5
  124. ID                                       : 7
  125. Format                                   : PGS
  126. Codec ID                                 : S_HDMV/PGS
  127. Codec ID/Info                            : Picture based subtitle format used on BDs/HD-DVDs
  128. Duration                                 : 1 h 42 min
  129. Bit rate                                 : 40.8 kb/s
  130. Count of elements                        : 2671
  131. Stream size                              : 29.7 MiB (0%)
  132. Language                                 : Polish
  133. Default                                  : No
  134. Forced                                   : No
  135.  
  136. Text #6
  137. ID                                       : 8
  138. Format                                   : PGS
  139. Codec ID                                 : S_HDMV/PGS
  140. Codec ID/Info                            : Picture based subtitle format used on BDs/HD-DVDs
  141. Duration                                 : 1 h 42 min
  142. Bit rate                                 : 40.7 kb/s
  143. Count of elements                        : 2673
  144. Stream size                              : 29.8 MiB (0%)
  145. Language                                 : Portuguese
  146. Default                                  : No
  147. Forced                                   : No
  148.  
  149. Text #7
  150. ID                                       : 9
  151. Format                                   : PGS
  152. Codec ID                                 : S_HDMV/PGS
  153. Codec ID/Info                            : Picture based subtitle format used on BDs/HD-DVDs
  154. Duration                                 : 1 h 42 min
  155. Bit rate                                 : 37.4 kb/s
  156. Count of elements                        : 2620
  157. Stream size                              : 27.3 MiB (0%)
  158. Language                                 : Romanian
  159. Default                                  : No
  160. Forced                                   : No
  161.  
  162. Text #8
  163. ID                                       : 10
  164. Format                                   : PGS
  165. Codec ID                                 : S_HDMV/PGS
  166. Codec ID/Info                            : Picture based subtitle format used on BDs/HD-DVDs
  167. Duration                                 : 1 h 42 min
  168. Bit rate                                 : 39.1 kb/s
  169. Count of elements                        : 2679
  170. Stream size                              : 28.5 MiB (0%)
  171. Language                                 : Russian
  172. Default                                  : No
  173. Forced                                   : No
  174.  
  175. Text #9
  176. ID                                       : 11
  177. Format                                   : PGS
  178. Codec ID                                 : S_HDMV/PGS
  179. Codec ID/Info                            : Picture based subtitle format used on BDs/HD-DVDs
  180. Duration                                 : 1 h 42 min
  181. Bit rate                                 : 39.5 kb/s
  182. Count of elements                        : 2903
  183. Stream size                              : 28.9 MiB (0%)
  184. Language                                 : Turkish
  185. Default                                  : No
  186. Forced                                   : No
  187.  
  188. Text #10
  189. ID                                       : 12
  190. Format                                   : PGS
  191. Codec ID                                 : S_HDMV/PGS
  192. Codec ID/Info                            : Picture based subtitle format used on BDs/HD-DVDs
  193. Duration                                 : 1 h 42 min
  194. Bit rate                                 : 41.0 kb/s
  195. Count of elements                        : 2681
  196. Stream size                              : 29.9 MiB (0%)
  197. Language                                 : Ukrainian
  198. Default                                  : No
  199. Forced                                   : No
  200.  
  201. Menu
  202. 00:00:00.000                             : en:World's Best
  203. 00:01:16.201                             : en:This Is Me
  204. 00:06:29.430                             : en:Taste This
  205. 00:09:22.895                             : en:Caught
  206. 00:10:58.074                             : en:Exodus
  207. 00:13:30.976                             : en:Wall Rat
  208. 00:17:40.017                             : en:Le Cooks
  209. 00:19:37.551                             : en:Big Break
  210. 00:24:48.320                             : en:Discovered
  211. 00:28:55.233                             : en:The Pact
  212. 00:33:05.066                             : en:First Day
  213. 00:38:13.416                             : en:Test Drive
  214. 00:40:33.139                             : en:Accidental Success
  215. 00:44:11.231                             : en:Cooking with Colette
  216. 00:46:59.316                             : en:Something New
  217. 00:51:27.667                             : en:Old and New Friends
  218. 00:57:02.168                             : en:Homecoming
  219. 00:59:32.318                             : en:Exterminator
  220. 01:00:53.524                             : en:Kiss & Vinegar
  221. 01:07:19.744                             : en:Losing Control
  222. 01:11:25.656                             : en:Paper Chase
  223. 01:15:28.232                             : en:Up & Down
  224. 01:19:25.093                             : en:Heist to See You
  225. 01:23:30.130                             : en:Big Night(Mare)
  226. 01:25:34.462                             : en:Ego Orders
  227. 01:28:18.334                             : en:Truth Hurts
  228. 01:32:39.011                             : en:Dinner Rush
  229. 01:35:41.444                             : en:Best Shot
  230. 01:38:49.715                             : en:The Review
  231. 01:40:54.673                             : en:La Ratatouille
  232. 01:42:58.964                             : en:End Creditouilles
RAW Paste Data