SHARE
TWEET

[TAC]Tawawa on Monday[01][720p].mkv

HYBRID_BEING Oct 20th, 2016 82 Never
Not a member of Pastebin yet? Sign Up, it unlocks many cool features!
  1. General
  2. Unique ID                                : 188368742192695621797414591751833315547 (0x8DB68007B41D505A87C80D313248E8DB)
  3. Complete name                            : [TAC]Tawawa on Monday[01][720p].mkv
  4. Format                                   : Matroska
  5. Format version                           : Version 4 / Version 2
  6. File size                                : 40.5 MiB
  7. Duration                                 : 4mn 37s
  8. Overall bit rate                         : 1 224 Kbps
  9. Encoded date                             : UTC 2016-10-10 05:39:09
  10. Writing application                      : mkvmerge v8.1.0 ('Psychedelic Postcard') 64bit
  11. Writing library                          : libebml v1.3.1 + libmatroska v1.4.2
  12.  
  13. Video
  14. ID                                       : 1
  15. Format                                   : AVC
  16. Format/Info                              : Advanced Video Codec
  17. Format profile                           : Main@L3.1
  18. Format settings, CABAC                   : Yes
  19. Format settings, ReFrames                : 3 frames
  20. Codec ID                                 : V_MPEG4/ISO/AVC
  21. Duration                                 : 4mn 37s
  22. Bit rate                                 : 1 096 Kbps
  23. Width                                    : 1 280 pixels
  24. Height                                   : 720 pixels
  25. Display aspect ratio                     : 16:9
  26. Frame rate mode                          : Constant
  27. Frame rate                               : 23.976 (24000/1001) fps
  28. Color space                              : YUV
  29. Chroma subsampling                       : 4:2:0
  30. Bit depth                                : 8 bits
  31. Scan type                                : Progressive
  32. Bits/(Pixel*Frame)                       : 0.050
  33. Stream size                              : 36.2 MiB (90%)
  34. Default                                  : Yes
  35. Forced                                   : No
  36. Color range                              : Limited
  37. Color primaries                          : BT.709
  38. Transfer characteristics                 : BT.709
  39. Matrix coefficients                      : BT.709
  40.  
  41. Audio
  42. ID                                       : 2
  43. Format                                   : AAC
  44. Format/Info                              : Advanced Audio Codec
  45. Format profile                           : LC
  46. Codec ID                                 : A_AAC
  47. Duration                                 : 4mn 37s
  48. Bit rate                                 : 126 Kbps
  49. Channel(s)                               : 2 channels
  50. Channel positions                        : Front: L R
  51. Sampling rate                            : 44.1 KHz
  52. Frame rate                               : 43.066 fps (1024 spf)
  53. Compression mode                         : Lossy
  54. Stream size                              : 4.15 MiB (10%)
  55. Default                                  : Yes
  56. Forced                                   : No
  57.  
  58. Text
  59. ID                                       : 3
  60. Format                                   : ASS
  61. Codec ID                                 : S_TEXT/ASS
  62. Codec ID/Info                            : Advanced Sub Station Alpha
  63. Duration                                 : 3mn 22s
  64. Bit rate                                 : 124 bps
  65. Count of elements                        : 48
  66. Compression mode                         : Lossless
  67. Stream size                              : 3.08 KiB (0%)
  68. Default                                  : Yes
  69. Forced                                   : No
RAW Paste Data
We use cookies for various purposes including analytics. By continuing to use Pastebin, you agree to our use of cookies as described in the Cookies Policy. OK, I Understand
Top