SHARE
TWEET

Media Info

a guest Feb 14th, 2020 79 Never
Not a member of Pastebin yet? Sign Up, it unlocks many cool features!
  1. Format                      : Matroska
  2. Format version              : Version 4
  3. File size                   : 1.26 GiB
  4. Duration                    : 2 h 28 min
  5. Overall bit rate            : 1 214 kb/s
  6. Movie name                  : Visit: MkvHub.Com
  7. Encoded date                : UTC 2020-02-14 22:10:01 / UTC
  8. Writing application         : mkvmerge v10.0.0 ('To Drown In You') 64bit
  9. Writing library             : libebml v1.3.4 + libmatroska v1.4.5 / Lavf55.12.0
  10.  
  11. Video
  12. ID                          : 1
  13. Format                      : AVC
  14. Format/Info                 : Advanced Video Codec
  15. Format profile              : High@L4
  16. Format settings             : CABAC / 4 Ref Frames
  17. Format settings, CABAC      : Yes
  18. Format settings, ReFrames   : 4 frames
  19. Codec ID                    : V_MPEG4/ISO/AVC
  20. Duration                    : 2 h 28 min
  21. Bit rate                    : 1 100 kb/s
  22. Width                       : 1 280 pixels
  23. Height                      : 534 pixels
  24. Display aspect ratio        : 2.40:1
  25. Frame rate mode             : Constant
  26. Frame rate                  : 23.976 (24000/1001) FPS
  27. Color space                 : YUV
  28. Chroma subsampling          : 4:2:0
  29. Bit depth                   : 8 bits
  30. Scan type                   : Progressive
  31. Bits/(Pixel*Frame)          : 0.067
  32. Stream size                 : 1.12 GiB (89%)
  33. Title                       : MkvHub.Com
  34. Writing library             : x264 core 142 r2479 dd79a61
  35. Encoding settings           : cabac=1 / ref=3 / deblock=1:0:0 / analyse=0x3:0x113 / me=hex / subme=7 / psy=1 / psy_rd=1.00:0.00 / mixed_ref=1 / me_range=16 / chroma_me=1 / trellis=1 / 8x8dct=1 / cqm=0 / deadzone=21,11 / fast_pskip=1 / chroma_qp_offset=-2 / threads=12 / lookahead_threads=2 / sliced_threads=0 / nr=0 / decimate=1 / interlaced=0 / bluray_compat=0 / constrained_intra=0 / bframes=3 / b_pyramid=2 / b_adapt=1 / b_bias=0 / direct=1 / weightb=1 / open_gop=0 / weightp=2 / keyint=240 / keyint_min=24 / scenecut=40 / intra_refresh=0 / rc_lookahead=40 / rc=abr / mbtree=1 / bitrate=1100 / ratetol=1.0 / qcomp=0.60 / qpmin=0 / qpmax=69 / qpstep=4 / vbv_maxrate=25000 / vbv_bufsize=31250 / nal_hrd=none / filler=0 / ip_ratio=1.40 / aq=1:1.00
  36. Default                     : Yes
  37. Forced                      : No
  38. Color range                 : Limited
  39. Color primaries             : BT.709
  40. Transfer characteristics    : BT.709
  41. Matrix coefficients         : BT.709
  42.  
  43. Audio
  44. ID                          : 2
  45. Format                      : AAC LC
  46. Format/Info                 : Advanced Audio Codec Low Complexity
  47. Codec ID                    : A_AAC-2
  48. Duration                    : 2 h 28 min
  49. Bit rate                    : 128 kb/s
  50. Channel(s)                  : 2 channels
  51. Channel layout              : L R
  52. Sampling rate               : 48.0 kHz
  53. Frame rate                  : 46.875 FPS (1024 SPF)
  54. Compression mode            : Lossy
  55. Delay relative to video     : -21 ms
  56. Stream size                 : 135 MiB (11%)
  57. Title                       : MkvHub.Com
  58. Language                    : Hindi
  59. Default                     : Yes
  60. Forced                      : No
  61.  
  62. Text
  63. ID                          : 3
  64. Format                      : ASS
  65. Codec ID                    : S_TEXT/ASS
  66. Codec ID/Info               : Advanced Sub Station Alpha
  67. Duration                    : 2 h 21 min
  68. Bit rate                    : 77 b/s
  69. Count of elements           : 1611
  70. Compression mode            : Lossless
  71. Stream size                 : 80.0 KiB (0%)
  72. Title                       : MkvHub.Com
  73. Language                    : English
  74. Default                     : No
  75. Forced                      : No
  76.  
  77. Menu
  78. 00:00:00.000                : :Film Certification
  79. 00:00:05.088                : :Disclaimer
  80. 00:00:18.101                : :Acknowledgement
  81. 00:00:26.109                : :Studio Logo
  82. 00:01:20.121                : :Opening Credits
  83. 00:03:23.119                : :Title Sequence
  84. 00:03:34.088                : :Scene 7
  85. 00:04:15.171                : :Scene 8
  86. 00:11:42.118                : :Scene 9
  87. 00:15:01.192                : :Scene 10
  88. 00:15:45.110                : :Scene 11
  89. 00:16:45.212                : :Scene 12
  90. 00:22:02.112                : :Scene 13
  91. 00:30:17.107                : :Scene 14
  92. 00:34:07.086                : :Scene 15
  93. 00:46:07.097                : :Scene 16
  94. 00:53:34.085                : :Scene 17
  95. 00:55:04.092                : :Scene 18
  96. 01:09:12.106                : :Scene 19
  97. 01:12:34.099                : :Scene 20
  98. 01:18:02.094                : :Scene 21
  99. 01:20:53.098                : :Scene 22
  100. 01:26:20.091                : :Scene 23
  101. 01:37:28.092                : :Scene 24
  102. 01:41:00.095                : :Scene 25
  103. 01:50:51.144                : :Scene 26
  104. 02:00:24.091                : :Scene 27
  105. 02:08:12.101                : :Scene 28
  106. 02:22:57.152                : :End Credits
RAW Paste Data
We use cookies for various purposes including analytics. By continuing to use Pastebin, you agree to our use of cookies as described in the Cookies Policy. OK, I Understand
Top