SHARE
TWEET

Captain Marvel HD-TS 720p

dirtyharrys Apr 22nd, 2019 150 Never
Not a member of Pastebin yet? Sign Up, it unlocks many cool features!
  1. General
  2. Unique ID                   : 151901198664852967196491182237545608977 (0x72471B51539C3A1CE54B3441AFD33711)
  3. Complete name               : E:\SERDYXB0YWluTWFydmVs.mkv
  4. Format                      : Matroska
  5. Format version              : Version 4
  6. File size                   : 1.78 GiB
  7. Duration                    : 1 h 57 min
  8. Overall bit rate            : 2 158 kb/s
  9. Movie name                  : Captain Marvel HD-TS / Captain Marvel HD-TS
  10. Encoded date                : UTC 2019-04-21 23:53:20
  11. Writing application         : mkvmerge v30.1.0 ('Forever And More') 32-bit
  12. Writing library             : libebml v1.3.6 + libmatroska v1.4.9
  13. Copyright                   : Movies HDs 2019
  14. ARTIST                      : HarshLearner
  15.  
  16. Video
  17. ID                          : 1
  18. Format                      : AVC
  19. Format/Info                 : Advanced Video Codec
  20. Format profile              : Baseline@L3.1
  21. Format settings             : 1 Ref Frames
  22. Format settings, CABAC      : No
  23. Format settings, ReFrames   : 1 frame
  24. Format settings, GOP        : M=1, N=15
  25. Codec ID                    : V_MPEG4/ISO/AVC
  26. Duration                    : 1 h 57 min
  27. Bit rate                    : 2 000 kb/s
  28. Width                       : 1 080 pixels
  29. Height                      : 500 pixels
  30. Display aspect ratio        : 2.2:1
  31. Frame rate mode             : Constant
  32. Frame rate                  : 30.000 FPS
  33. Color space                 : YUV
  34. Chroma subsampling          : 4:2:0
  35. Bit depth                   : 8 bits
  36. Scan type                   : Progressive
  37. Bits/(Pixel*Frame)          : 0.123
  38. Stream size                 : 1.68 GiB (94%)
  39. Title                       : Captain Marvel
  40. Writing library             : x264 core 118
  41. Default                     : Yes
  42. Forced                      : No
  43.  
  44. Audio
  45. ID                          : 2
  46. Format                      : AAC LC
  47. Format/Info                 : Advanced Audio Codec Low Complexity
  48. Codec ID                    : A_AAC-2
  49. Duration                    : 1 h 57 min
  50. Bit rate                    : 121 kb/s
  51. Channel(s)                  : 2 channels
  52. Channel layout              : L R
  53. Sampling rate               : 48.0 kHz
  54. Frame rate                  : 46.875 FPS (1024 SPF)
  55. Compression mode            : Lossy
  56. Stream size                 : 102 MiB (6%)
  57. Language                    : English
  58. Default                     : Yes
  59. Forced                      : No
  60.  
  61. Text #1
  62. ID                          : 3
  63. Format                      : SSA
  64. Codec ID                    : S_TEXT/SSA
  65. Codec ID/Info               : Sub Station Alpha
  66. Duration                    : 1 h 55 min
  67. Bit rate                    : 93 b/s
  68. Count of elements           : 1179
  69. Compression mode            : Lossless
  70. Stream size                 : 79.4 KiB (0%)
  71. Language                    : Spanish
  72. Default                     : Yes
  73. Forced                      : No
  74.  
  75. Text #2
  76. ID                          : 4
  77. Format                      : UTF-8
  78. Codec ID                    : S_TEXT/UTF8
  79. Codec ID/Info               : UTF-8 Plain Text
  80. Duration                    : 1 h 55 min
  81. Bit rate                    : 51 b/s
  82. Count of elements           : 1179
  83. Stream size                 : 43.3 KiB (0%)
  84. Language                    : Spanish
  85. Default                     : No
  86. Forced                      : No
RAW Paste Data
We use cookies for various purposes including analytics. By continuing to use Pastebin, you agree to our use of cookies as described in the Cookies Policy. OK, I Understand
 
Top