GrabHD

Untitled

Feb 26th, 2020
106
Never
Not a member of Pastebin yet? Sign Up, it unlocks many cool features!
  1. General
  2. Unique ID : 242369793511792223390626232013955851627 (0xB656B96B53BB1FB99D1511A84288E56B)
  3. Complete name : Shahmatist.2019.WEB-DL.1080p.ELEKTRI4KA.UNIONGANG.mkv
  4. Format : Matroska
  5. Format version : Version 4 / Version 2
  6. File size : 3.96 GiB
  7. Duration : 1 h 47 min
  8. Overall bit rate : 5 285 kb/s
  9. Movie name : ELEKTRI4KA.UNIONGANG
  10. Encoded date : UTC 2020-02-26 12:43:03
  11. Writing application : mkvmerge v8.3.0 ('Over the Horizon') 64bit
  12. Writing library : libebml v1.3.1 + libmatroska v1.4.2
  13.  
  14. Video
  15. ID : 1
  16. Format : AVC
  17. Format/Info : Advanced Video Codec
  18. Format profile : High@L4
  19. Format settings, CABAC : Yes
  20. Format settings, ReFrames : 5 frames
  21. Codec ID : V_MPEG4/ISO/AVC
  22. Duration : 1 h 47 min
  23. Bit rate : 4 518 kb/s
  24. Width : 1 916 pixels
  25. Height : 800 pixels
  26. Display aspect ratio : 2.40:1
  27. Frame rate mode : Constant
  28. Frame rate : 24.000 FPS
  29. Color space : YUV
  30. Chroma subsampling : 4:2:0
  31. Bit depth : 8 bits
  32. Scan type : Progressive
  33. Bits/(Pixel*Frame) : 0.123
  34. Stream size : 3.39 GiB (85%)
  35. Language : French
  36. Default : Yes
  37. Forced : No
  38. Color range : Limited
  39. Color primaries : BT.709
  40. Transfer characteristics : BT.709
  41. Matrix coefficients : BT.709
  42.  
  43. Audio #1
  44. ID : 2
  45. Format : AC-3
  46. Format/Info : Audio Coding 3
  47. Mode extension : CM (complete main)
  48. Format settings, Endianness : Big
  49. Codec ID : A_AC3
  50. Duration : 1 h 47 min
  51. Bit rate mode : Constant
  52. Bit rate : 384 kb/s
  53. Channel(s) : 6 channels
  54. Channel positions : Front: L C R, Side: L R, LFE
  55. Sampling rate : 48.0 kHz
  56. Frame rate : 31.250 FPS (1536 spf)
  57. Bit depth : 16 bits
  58. Compression mode : Lossy
  59. Delay relative to video : -42 ms
  60. Stream size : 295 MiB (7%)
  61. Title : iTunes
  62. Language : Russian
  63. Default : Yes
  64. Forced : No
  65.  
  66. Audio #2
  67. ID : 3
  68. Format : AC-3
  69. Format/Info : Audio Coding 3
  70. Mode extension : CM (complete main)
  71. Format settings, Endianness : Big
  72. Codec ID : A_AC3
  73. Duration : 1 h 47 min
  74. Bit rate mode : Constant
  75. Bit rate : 384 kb/s
  76. Channel(s) : 6 channels
  77. Channel positions : Front: L C R, Side: L R, LFE
  78. Sampling rate : 48.0 kHz
  79. Frame rate : 31.250 FPS (1536 spf)
  80. Bit depth : 16 bits
  81. Compression mode : Lossy
  82. Delay relative to video : -42 ms
  83. Stream size : 295 MiB (7%)
  84. Language : French
  85. Default : No
  86. Forced : No
  87.  
  88. Menu
  89. 00:00:00.000 : en:Chapitre 01
  90. 00:09:06.000 : en:Chapitre 02
  91. 00:19:03.000 : en:Chapitre 03
  92. 00:29:01.000 : en:Chapitre 04
  93. 00:38:57.000 : en:Chapitre 05
  94. 00:49:29.000 : en:Chapitre 06
  95. 00:58:42.000 : en:Chapitre 07
  96. 01:11:04.000 : en:Chapitre 08
  97. 01:21:49.000 : en:Chapitre 09
  98. 01:30:03.000 : en:Chapitre 10
  99. 01:40:55.000 : en:Chapitre 11
RAW Paste Data