SHARE
TWEET

Fantastic Beasts: The Crimes Of Grindelwald BluRay HEVC

dirtyharrys Jul 5th, 2019 86 Never
Not a member of Pastebin yet? Sign Up, it unlocks many cool features!
  1. General
  2. Unique ID                   : 295169823567100311027946159404128047136 (0xDE0FA3E368BB23BA451D2421A7DE9020)
  3. Complete name               : E:\Fantastic.Beasts.The.Crimes.Of.Grindelwald.2018.BluRay.1080p.HEVC.x265\Fantastic.Beasts.The.Crimes.Of.Grindelwald.2018.BluRay.1080p.HEVC.x265.mkv
  4. Format                      : Matroska
  5. Format version              : Version 4
  6. File size                   : 7.58 GiB
  7. Duration                    : 2 h 13 min
  8. Overall bit rate            : 8 106 kb/s
  9. Movie name                  : Fantastic Beasts: The Crimes Of Grindelwald BluRay / Fantastic Beasts: The Crimes Of Grindelwald BluRay
  10. Encoded date                : UTC 2019-06-23 04:19:38
  11. Writing application         : mkvmerge v30.1.0 ('Forever And More') 32-bit
  12. Writing library             : libebml v1.3.6 + libmatroska v1.4.9
  13. Copyright                   : Movies HDs 2019
  14. ARTIST                      : HarshLearner
  15.  
  16. Video
  17. ID                          : 1
  18. Format                      : HEVC
  19. Format/Info                 : High Efficiency Video Coding
  20. Format profile              : Main 10@L4.1@High
  21. Codec ID                    : V_MPEGH/ISO/HEVC
  22. Duration                    : 2 h 13 min
  23. Bit rate                    : 7 000 kb/s
  24. Width                       : 1 920 pixels
  25. Height                      : 800 pixels
  26. Display aspect ratio        : 2.40:1
  27. Frame rate mode             : Constant
  28. Frame rate                  : 23.976 (24000/1001) FPS
  29. Color space                 : YUV
  30. Chroma subsampling          : 4:2:0
  31. Bit depth                   : 10 bits
  32. Bits/(Pixel*Frame)          : 0.190
  33. Stream size                 : 6.54 GiB (86%)
  34. Title                       : Fantastic Beasts: The Crimes Of Grindelwald
  35. Writing library             : x265 3.0+1-ed72af837053:[Windows][GCC 8.2.0][64 bit] 10bit
  36. Encoding settings           : cpuid=1111039 / frame-threads=4 / numa-pools=14,14 / wpp / pmode / no-pme / no-psnr / no-ssim / log-level=2 / input-csp=1 / input-res=1920x800 / interlace=0 / total-frames=192528 / level-idc=41 / high-tier=1 / uhd-bd=0 / ref=3 / no-allow-non-conformance / no-repeat-headers / annexb / no-aud / no-hrd / info / hash=0 / no-temporal-layers / open-gop / min-keyint=23 / keyint=240 / gop-lookahead=0 / bframes=4 / b-adapt=2 / b-pyramid / bframe-bias=0 / rc-lookahead=20 / lookahead-slices=5 / scenecut=40 / radl=0 / no-splice / no-intra-refresh / ctu=32 / min-cu-size=8 / no-rect / no-amp / max-tu-size=32 / tu-inter-depth=1 / tu-intra-depth=1 / limit-tu=0 / rdoq-level=0 / dynamic-rd=0.00 / no-ssim-rd / signhide / no-tskip / nr-intra=0 / nr-inter=0 / no-constrained-intra / no-strong-intra-smoothing / max-merge=2 / limit-refs=0 / no-limit-modes / me=2 / subme=5 / merange=32 / temporal-mvp / weightp / no-weightb / no-analyze-src-pics / deblock=-3:-3 / no-sao / no-sao-non-deblock / rd=3 / no-early-skip / rskip / no-fast-intra / no-tskip-fast / no-cu-lossless / no-b-intra / no-splitrd-skip / rdpenalty=0 / psy-rd=2.00 / psy-rdoq=0.00 / no-rd-refine / no-lossless / cbqpoffs=0 / crqpoffs=0 / rc=crf / crf=17.0 / qcomp=0.60 / qpstep=4 / stats-write=0 / stats-read=0 / vbv-maxrate=50000 / vbv-bufsize=50000 / vbv-init=0.9 / crf-max=0.0 / crf-min=0.0 / ipratio=1.40 / pbratio=1.30 / aq-mode=3 / aq-strength=0.95 / cutree / zone-count=0 / no-strict-cbr / qg-size=32 / no-rc-grain / qpmax=69 / qpmin=0 / no-const-vbv / sar=0 / overscan=0 / videoformat=5 / range=0 / colorprim=1 / transfer=1 / colormatrix=1 / chromaloc=0 / display-window=0 / max-cll=0,0 / min-luma=0 / max-luma=1023 / log2-max-poc-lsb=8 / vui-timing-info / vui-hrd-info / slices=1 / no-opt-qp-pps / no-opt-ref-list-length-pps / no-multi-pass-opt-rps / scenecut-bias=0.05 / no-opt-cu-delta-qp / no-aq-motion / no-hdr / no-hdr-opt / no-dhdr10-opt / no-idr-recovery-sei / analysis-reuse-level=5 / scale-factor=0 / refine-intra=0 / refine-inter=0 / refine-mv=0 / refine-ctu-distortion=0 / no-limit-sao / ctu-info=0 / no-lowpass-dct / refine-analysis-type=0 / copy-pic=1 / max-ausize-factor=1.0 / no-dynamic-refine / no-single-sei / no-hevc-aq / qp-adaptation-range=1.00
  37. Language                    : English
  38. Default                     : Yes
  39. Forced                      : No
  40. Color range                 : Limited
  41. Color primaries             : BT.709
  42. Transfer characteristics    : BT.709
  43. Matrix coefficients         : BT.709
  44.  
  45. Audio #1
  46. ID                          : 2
  47. Format                      : AC-3
  48. Format/Info                 : Audio Coding 3
  49. Commercial name             : Dolby Digital
  50. Codec ID                    : A_AC3
  51. Duration                    : 2 h 13 min
  52. Bit rate mode               : Constant
  53. Bit rate                    : 640 kb/s
  54. Channel(s)                  : 6 channels
  55. Channel layout              : L R C LFE Ls Rs
  56. Sampling rate               : 48.0 kHz
  57. Frame rate                  : 31.250 FPS (1536 SPF)
  58. Bit depth                   : 16 bits
  59. Compression mode            : Lossy
  60. Stream size                 : 613 MiB (8%)
  61. Language                    : English
  62. Service kind                : Complete Main
  63. Default                     : No
  64. Forced                      : No
  65.  
  66. Audio #2
  67. ID                          : 3
  68. Format                      : AC-3
  69. Format/Info                 : Audio Coding 3
  70. Commercial name             : Dolby Digital
  71. Codec ID                    : A_AC3
  72. Duration                    : 2 h 13 min
  73. Bit rate mode               : Constant
  74. Bit rate                    : 448 kb/s
  75. Channel(s)                  : 6 channels
  76. Channel layout              : L R C LFE Ls Rs
  77. Sampling rate               : 48.0 kHz
  78. Frame rate                  : 31.250 FPS (1536 SPF)
  79. Bit depth                   : 16 bits
  80. Compression mode            : Lossy
  81. Delay relative to video     : 32 ms
  82. Stream size                 : 429 MiB (6%)
  83. Language                    : Spanish
  84. Service kind                : Complete Main
  85. Default                     : Yes
  86. Forced                      : Yes
  87.  
  88. Text #1
  89. ID                          : 4
  90. Format                      : PGS
  91. Muxing mode                 : zlib
  92. Codec ID                    : S_HDMV/PGS
  93. Codec ID/Info               : Picture based subtitle format used on BDs/HD-DVDs
  94. Duration                    : 2 h 13 min
  95. Bit rate                    : 27.8 kb/s
  96. Count of elements           : 3012
  97. Stream size                 : 26.6 MiB (0%)
  98. Language                    : English
  99. Default                     : No
  100. Forced                      : No
  101.  
  102. Text #2
  103. ID                          : 5
  104. Format                      : PGS
  105. Muxing mode                 : zlib
  106. Codec ID                    : S_HDMV/PGS
  107. Codec ID/Info               : Picture based subtitle format used on BDs/HD-DVDs
  108. Duration                    : 2 h 12 min
  109. Bit rate                    : 22.9 kb/s
  110. Count of elements           : 2496
  111. Stream size                 : 21.8 MiB (0%)
  112. Language                    : Spanish
  113. Default                     : No
  114. Forced                      : No
  115.  
  116. Text #3
  117. ID                          : 6
  118. Format                      : UTF-8
  119. Codec ID                    : S_TEXT/UTF8
  120. Codec ID/Info               : UTF-8 Plain Text
  121. Duration                    : 2 h 4 min
  122. Bit rate                    : 46 b/s
  123. Count of elements           : 1505
  124. Stream size                 : 42.8 KiB (0%)
  125. Language                    : English
  126. Default                     : No
  127. Forced                      : No
  128.  
  129. Text #4
  130. ID                          : 7
  131. Format                      : UTF-8
  132. Codec ID                    : S_TEXT/UTF8
  133. Codec ID/Info               : UTF-8 Plain Text
  134. Duration                    : 2 h 4 min
  135. Bit rate                    : 44 b/s
  136. Count of elements           : 1238
  137. Stream size                 : 40.9 KiB (0%)
  138. Language                    : Spanish
  139. Default                     : Yes
  140. Forced                      : Yes
  141.  
  142. Text #5
  143. ID                          : 8
  144. Format                      : UTF-8
  145. Codec ID                    : S_TEXT/UTF8
  146. Codec ID/Info               : UTF-8 Plain Text
  147. Duration                    : 20 min 46 s
  148. Bit rate                    : 0 b/s
  149. Count of elements           : 3
  150. Stream size                 : 64.0 Bytes (0%)
  151. Language                    : Spanish
  152. Default                     : No
  153. Forced                      : No
  154.  
  155. Menu
  156. 00:00:00.000                : :Chapter 01
  157. 00:07:15.309                : :Chapter 02
  158. 00:21:39.381                : :Chapter 03
  159. 00:32:56.849                : :Chapter 04
  160. 00:41:41.123                : :Chapter 05
  161. 00:50:26.189                : :Chapter 06
  162. 00:58:21.539                : :Chapter 07
  163. 01:12:02.860                : :Chapter 08
  164. 01:20:23.610                : :Chapter 09
  165. 01:34:50.059                : :Chapter 10
  166. 01:43:08.557                : :Chapter 11
  167. 01:51:42.237                : :Chapter 12
  168. 02:00:31.641                : :Chapter 13
RAW Paste Data
We use cookies for various purposes including analytics. By continuing to use Pastebin, you agree to our use of cookies as described in the Cookies Policy. OK, I Understand
 
Top