Advertisement
Guest User

Untitled

a guest
Jul 12th, 2019
111
Never
Not a member of Pastebin yet? Sign Up, it unlocks many cool features!
  1. 2019-07-12 18:03:32.782
  2. Application version: 4.1.1.0
  3.  
  4. https://bowtie-ent.com:8920/emby/videos/5967/hls1/main/874.ts?DeviceId=TW96aWxsYS81LjAgKFdpbmRvd3MgTlQgMTAuMDsgV2luNjQ7IHg2NDsgcnY6NjguMCkgR2Vja28vMjAxMDAxMDEgRmlyZWZveC82OC4wfDE1NjI5MTY5ODYzMjE1&MediaSourceId=00e4c6b766985a5617ae07be57a83756&PlaySessionId=b0dbd45025e74374b4ed333f11c5b997&api_key=d10348f065c6461e8f25273e11041d26&VideoCodec=h264&AudioCodec=aac&VideoBitrate=139868136&AudioBitrate=131864&AudioStreamIndex=1&TranscodingMaxAudioChannels=2&SegmentContainer=ts&MinSegments=1&BreakOnNonKeyFrames=True&ManifestSubtitles=vtt&h264-profile=high,main,baseline,constrainedbaseline&h264-level=51&TranscodeReasons=ContainerNotSupported
  5.  
  6. {"Protocol":"File","Id":"00e4c6b766985a5617ae07be57a83756","Path":"/mnt/Share/Media/Library/TV/House (2004)/Season 01/House - S01E09 - DNR -[2005-02-01]/House MD Season 1 Episode 09 - DNR.avi","Type":"Default","Container":"avi","Size":366980456,"Name":"House MD Season 1 Episode 09 - DNR","IsRemote":false,"RunTimeTicks":26225810000,"SupportsTranscoding":true,"SupportsDirectStream":true,"SupportsDirectPlay":true,"IsInfiniteStream":false,"RequiresOpening":false,"RequiresClosing":false,"RequiresLooping":false,"SupportsProbing":false,"MediaStreams":[{"Codec":"mpeg4","CodecTag":"XVID","TimeBase":"125/2997","CodecTimeBase":"125/2997","VideoRange":"SDR","DisplayTitle":"SD MPEG4","IsInterlaced":false,"BitRate":974834,"RefFrames":1,"IsDefault":false,"IsForced":false,"Height":352,"Width":624,"AverageFrameRate":23.976,"RealFrameRate":23.976,"Profile":"Advanced Simple Profile","Type":"Video","AspectRatio":"16:9","Index":0,"IsExternal":false,"IsTextSubtitleStream":false,"SupportsExternalStream":false,"PixelFormat":"yuv420p","Level":5,"IsAnamorphic":false},{"Codec":"mp3","TimeBase":"3/125","CodecTimeBase":"1/48000","DisplayTitle":"MP3 stereo","IsInterlaced":false,"ChannelLayout":"stereo","BitRate":131864,"Channels":2,"SampleRate":48000,"IsDefault":false,"IsForced":false,"Type":"Audio","Index":1,"IsExternal":false,"IsTextSubtitleStream":false,"SupportsExternalStream":false,"Level":0}],"Formats":[],"Bitrate":1119448,"RequiredHttpHeaders":{},"ReadAtNativeFramerate":false}
  7.  
  8. User policy for NErdgOd: EnablePlaybackRemuxing: True EnableVideoPlaybackTranscoding: True EnableAudioPlaybackTranscoding: True
  9.  
  10. Affected codecs:
  11. >>>>>> libx264 Software Encoder
  12. Color Formats: YUV420P, YUVJ420P, YUV422P, YUVJ422P, YUV444P, YUVJ444P, NV12, NV16, NV21, YUV420P10, YUV422P10, YUV444P10, NV20
  13. Profiles: Baseline Profile (Level 6.2), Main Profile (Level 6.2), High Profile (Level 6.2), High 10 Profile (Level 6.2), High 4:2:2 Profile (Level 6.2), High 4:4:4 Profile (Level 6.2)
  14.  
  15.  
  16. >>>>>> FindVideoDecoder - MediaType: mpeg4, Mode: 2
  17. Info FindVideoDecoder - Checking: 'Automatic software decoder' (Priority: 0)
  18. Info FindVideoDecoder - Check successful - selecting 'Automatic software decoder'
  19.  
  20. >>>>>> FindVideoEncoder - Media: h264, UseHardwareCodecs: False, Mode: 2
  21. Info FindVideoEncoder - Checking: 'libx264 Software Encoder' (Priority: 0)
  22. Info Encoder supports input stream
  23. Info FindVideoEncoder - Check successful - selecting 'libx264 Software Encoder'
  24.  
  25. /usr/bin/ffmpeg-emby -ss 00:43:42.000 -f avi -i file:"/mnt/Share/Media/Library/TV/House (2004)/Season 01/House - S01E09 - DNR -[2005-02-01]/House MD Season 1 Episode 09 - DNR.avi" -threads 1 -map 0:0 -map 0:1 -map -0:s -c:v:0 libx264 -pix_fmt yuv420p -maxrate 2924502 -bufsize 5849004 -preset veryfast -profile:v:0 high -level:v:0 4.1 -crf 28 -x264opts:0 subme=0:me_range=4:rc_lookahead=10:me=dia:no_chroma_me:8x8dct=0:partitions=none -g:v:0 72 -keyint_min:v:0 72 -sc_threshold:v:0 0 -copyts -vsync -1 -codec:a:0 aac -disposition:a:0 default -ac:a:0 2 -ab:a:0 131864 -f segment -max_delay 5000000 -avoid_negative_ts disabled -map_metadata -1 -map_chapters -1 -start_at_zero -segment_time 3 -individual_header_trailer 0 -segment_format mpegts -segment_write_temp 1 -segment_list_type m3u8 -segment_start_number 874 -segment_list "/opt/.emby/transcode/transcoding-temp/9ddd042a25561a99e84d76af3927df2f.m3u8" -y "/opt/.emby/transcode/transcoding-temp/9ddd042a25561a99e84d76af3927df2f%d.ts"
  26.  
  27. ffmpeg version 4.0.3-emby_2019_04_09 Copyright (c) 2000-2018 the FFmpeg developers and softworkz for Emby LLC
  28. built with gcc 8.3.0 (GCC)
  29. Local Time: 18:03:32
  30. T=0.000s
  31. T=0.007s
  32. Input #0, avi, from 'file:/mnt/Share/Media/Library/TV/House (2004)/Season 01/House - S01E09 - DNR -[2005-02-01]/House MD Season 1 Episode 09 - DNR.avi':
  33. Metadata:
  34. artist : TSV Productions
  35. Duration: 00:43:42.58, start: 0.000000, bitrate: 1119 kb/s
  36. Stream #0:0: Video: mpeg4 (Advanced Simple Profile) (XVID / 0x44495658), yuv420p, 624x352 [SAR 1:1 DAR 39:22], 974 kb/s, Level 5, 23.98 fps, 23.98 tbr, 23.98 tbn, 23.98 tbc
  37. Stream #0:1: Audio: mp3 (U[0][0][0] / 0x0055), 48000 Hz, stereo, fltp, 131 kb/s
  38. T=0.053s
  39. T=0.054s
  40. Last message repeated 2 times
  41. Stream mapping:
  42. Stream #0:0 -> #0:0 (mpeg4 (native) -> h264 (libx264))
  43. Stream #0:1 -> #0:1 (mp3 (mp3float) -> aac (native))
  44. T=0.054s
  45. Press [q] to stop, [?] for help
  46. [NULL @ 0x55588f153b80] Failed to parse extradata
  47. [mpeg4 @ 0x55588f179880] Video uses a non-standard and wasteful way to store B-frames ('packed B-frames'). Consider using the mpeg4_unpack_bframes bitstream filter without encoding but stream copy to fix it.
  48. [libx264 @ 0x55588f158780] using SAR=1/1
  49. [libx264 @ 0x55588f158780] using cpu capabilities: MMX2 SSE2Fast SSSE3 SSE4.2 AVX
  50. [libx264 @ 0x55588f158780] profile Main, level 4.1, 4:2:0, 8-bit
  51. [libx264 @ 0x55588f158780] 264 - core 157 r2945 72db437 - H.264/MPEG-4 AVC codec - Copyleft 2003-2018 - http://www.videolan.org/x264.html - options: cabac=1 ref=1 deblock=1:0:0 analyse=0x1:0 me=dia subme=0 psy=1 psy_rd=1.00:0.00 mixed_ref=0 me_range=4 chroma_me=0 trellis=0 8x8dct=0 cqm=0 deadzone=21,11 fast_pskip=1 chroma_qp_offset=0 threads=1 lookahead_threads=1 sliced_threads=0 nr=0 decimate=1 interlaced=0 bluray_compat=0 constrained_intra=0 bframes=3 b_pyramid=2 b_adapt=1 b_bias=0 direct=1 weightb=1 open_gop=0 weightp=1 keyint=72 keyint_min=37 scenecut=0 intra_refresh=0 rc_lookahead=10 rc=crf mbtree=1 crf=28.0 qcomp=0.60 qpmin=0 qpmax=69 qpstep=4 vbv_maxrate=2924 vbv_bufsize=5849 crf_max=0.0 nal_hrd=none filler=0 ip_ratio=1.40 aq=1:1.00
  52. [segment @ 0x55588f17e700] Opening '/opt/.emby/transcode/transcoding-temp/9ddd042a25561a99e84d76af3927df2f874.ts.tmp' for writing
  53. Output #0, segment, to '/opt/.emby/transcode/transcoding-temp/9ddd042a25561a99e84d76af3927df2f%d.ts':
  54. Metadata:
  55. encoder : Lavf58.12.100
  56. Stream #0:0: Video: h264 (libx264), yuv420p, 624x352 [SAR 1:1 DAR 39:22], q=-1--1, 23.98 fps, 90k tbn, 23.98 tbc
  57. Metadata:
  58. encoder : Lavc58.18.100 libx264
  59. Side data:
  60. cpb: bitrate max/min/avg: 2924000/0/0 buffer size: 5849000 vbv_delay: -1
  61. Stream #0:1: Audio: aac (LC), 48000 Hz, stereo, fltp, 131 kb/s (default)
  62. Metadata:
  63. encoder : Lavc58.18.100 aac
  64. [segment @ 0x55588f17e700] Opening '/opt/.emby/transcode/transcoding-temp/9ddd042a25561a99e84d76af3927df2f.m3u8.tmp' for writing
  65. SegmentComplete=video:0 Index=874 Start=0.000000 End=2622.622622 Duration=2622.622622 offset_pts=0 start_pts=0 Frames=15 filename=9ddd042a25561a99e84d76af3927df2f874.ts
  66. elapsed=00:00:00.05 frame= 15 fps=0.0 q=33.0 Lsize= 1kB time=00:43:42.55 bitrate= 0.0kbits/s throttle=off speed=4.67e+04x
  67. video:1kB audio:0kB subtitle:0kB other streams:0kB global headers:0kB muxing overhead: 0.000000%
  68. T=0.116s
  69. Local Time: 18:03:32
  70. [libx264 @ 0x55588f158780] frame I:1 Avg QP:14.00 size: 94
  71. [libx264 @ 0x55588f158780] frame P:4 Avg QP:16.00 size: 20
  72. [libx264 @ 0x55588f158780] frame B:10 Avg QP:17.70 size: 17
  73. [libx264 @ 0x55588f158780] consecutive B-frames: 6.7% 13.3% 0.0% 80.0%
  74. [libx264 @ 0x55588f158780] mb I I16..4: 99.9% 0.0% 0.1%
  75. [libx264 @ 0x55588f158780] mb P I16..4: 0.0% 0.0% 0.0% P16..4: 0.0% 0.0% 0.0% 0.0% 0.0% skip:100.0%
  76. [libx264 @ 0x55588f158780] mb B I16..4: 0.0% 0.0% 0.0% B16..8: 0.0% 0.0% 0.0% direct: 0.0% skip:100.0%
  77. [libx264 @ 0x55588f158780] coded y,uvDC,uvAC intra: 0.0% 0.0% 0.0% inter: 0.0% 0.0% 0.0%
  78. [libx264 @ 0x55588f158780] i16 v,h,dc,p: 96% 0% 4% 0%
  79. [libx264 @ 0x55588f158780] i4 v,h,dc,ddl,ddr,vr,hd,vl,hu: 0% 0% 100% 0% 0% 0% 0% 0% 0%
  80. [libx264 @ 0x55588f158780] i8c dc,h,v,p: 100% 0% 0% 0%
  81. [libx264 @ 0x55588f158780] Weighted P-Frames: Y:0.0% UV:0.0%
  82. [libx264 @ 0x55588f158780] kb/s:4.48
  83. [aac @ 0x55588f177cc0] Qavg: 65536.000
Advertisement
RAW Paste Data Copied
Advertisement