SHARE
TWEET

Noisia – Essential Mix – 13/03/2010

damnated Dec 17th, 2011 199 Never
Not a member of Pastebin yet? Sign Up, it unlocks many cool features!
  1. REM GENRE "Drum & Bass"
  2. REM DATE 2010
  3. PERFORMER "Noisia"
  4. TITLE "Noisa Essential Mix"
  5. FILE "2010-03-13 - Noisia - Essential Mix.mp3" WAVE
  6.   TRACK 01 AUDIO
  7.     TITLE "Intro"
  8.     PERFORMER "Essential Mix"
  9.     FLAGS PRE
  10.     INDEX 00 00:00:00
  11.     INDEX 01 00:00:32
  12.   TRACK 02 AUDIO
  13.     TITLE "Essential Mix Intro"
  14.     PERFORMER "Noisia"
  15.     FLAGS PRE
  16.     INDEX 01 02:29:02
  17.   TRACK 03 AUDIO
  18.     TITLE "Machine Gun (Amon Tobin Remix)"
  19.     PERFORMER "Noisia"
  20.     FLAGS PRE
  21.     INDEX 01 03:23:00
  22.   TRACK 04 AUDIO
  23.     TITLE "Machine Gun"
  24.     PERFORMER "Noisia"
  25.     FLAGS PRE
  26.     INDEX 01 05:12:00
  27.   TRACK 05 AUDIO
  28.     TITLE "Machine Gun (16 Bit Remix)"
  29.     PERFORMER "Noisia"
  30.     FLAGS PRE
  31.     INDEX 01 07:25:00
  32.   TRACK 06 AUDIO
  33.     TITLE "Absurd"
  34.     PERFORMER "Phace"
  35.     FLAGS PRE
  36.     INDEX 01 08:24:00
  37.   TRACK 07 AUDIO
  38.     TITLE "End of the River"
  39.     PERFORMER "Noisia"
  40.     FLAGS PRE
  41.     INDEX 01 08:51:00
  42.   TRACK 08 AUDIO
  43.     TITLE "Bone Structure"
  44.     PERFORMER "Rockwell & Zero T"
  45.     FLAGS PRE
  46.     INDEX 01 10:42:00
  47.   TRACK 09 AUDIO
  48.     TITLE "Hand Gestures"
  49.     PERFORMER "Noisia"
  50.     FLAGS PRE
  51.     INDEX 01 12:01:00
  52.   TRACK 10 AUDIO
  53.     TITLE "Thursday"
  54.     PERFORMER "Noisia"
  55.     FLAGS PRE
  56.     INDEX 01 14:03:00
  57.   TRACK 11 AUDIO
  58.     TITLE "Deception (Essential Mix Edit)"
  59.     PERFORMER "Noisia"
  60.     FLAGS PRE
  61.     INDEX 01 17:24:00
  62.   TRACK 12 AUDIO
  63.     TITLE "Contact (Noisia Remix)"
  64.     PERFORMER "Foreign Beggars & Noisia"
  65.     FLAGS PRE
  66.     INDEX 01 18:54:00
  67.   TRACK 13 AUDIO
  68.     TITLE "Tor"
  69.     PERFORMER "The Upbeats"
  70.     FLAGS PRE
  71.     INDEX 01 21:08:00
  72.   TRACK 14 AUDIO
  73.     TITLE "Leakage"
  74.     PERFORMER "Noisia"
  75.     FLAGS PRE
  76.     INDEX 01 22:48:00
  77.   TRACK 15 AUDIO
  78.     TITLE "Kitchen Sink (Noisia Remix)"
  79.     PERFORMER "Amon Tobin"
  80.     FLAGS PRE
  81.     INDEX 01 23:58:00
  82.   TRACK 16 AUDIO
  83.     TITLE "Anything"
  84.     PERFORMER "Icicle"
  85.     FLAGS PRE
  86.     INDEX 01 25:21:00
  87.   TRACK 17 AUDIO
  88.     TITLE "Pacifica"
  89.     PERFORMER "Spor"
  90.     FLAGS PRE
  91.     INDEX 01 28:33:00
  92.   TRACK 18 AUDIO
  93.     TITLE "Luka Leon"
  94.     PERFORMER "Stephan Bodzin"
  95.     FLAGS PRE
  96.     INDEX 01 29:45:00
  97.   TRACK 19 AUDIO
  98.     TITLE "Alpha Centauri"
  99.     PERFORMER "Noisia"
  100.     FLAGS PRE
  101.     INDEX 01 34:36:00
  102.   TRACK 20 AUDIO
  103.     TITLE "Firepower"
  104.     PERFORMER "Wolfgang Gartner"
  105.     FLAGS PRE
  106.     INDEX 01 36:39:00
  107.   TRACK 21 AUDIO
  108.     TITLE "Move Higher"
  109.     PERFORMER "Sub Focus & Culture Shock"
  110.     FLAGS PRE
  111.     INDEX 01 38:36:00
  112.   TRACK 22 AUDIO
  113.     TITLE "Newjack (Noisia Essential Mix Edit)"
  114.     PERFORMER "Justice"
  115.     FLAGS PRE
  116.     INDEX 01 40:01:00
  117.   TRACK 23 AUDIO
  118.     TITLE "Cycles Within Cycles Within"
  119.     PERFORMER "Tipper"
  120.     FLAGS PRE
  121.     INDEX 01 41:30:00
  122.   TRACK 24 AUDIO
  123.     TITLE "The F’ing Formula"
  124.     PERFORMER "Dorian Concept"
  125.     FLAGS PRE
  126.     INDEX 01 42:47:00
  127.   TRACK 25 AUDIO
  128.     TITLE "Work It"
  129.     PERFORMER "Missy Elliott"
  130.     FLAGS PRE
  131.     INDEX 01 43:30:00
  132.   TRACK 26 AUDIO
  133.     TITLE "Get Familiar"
  134.     PERFORMER "Bullion"
  135.     FLAGS PRE
  136.     INDEX 01 43:45:00
  137.   TRACK 27 AUDIO
  138.     TITLE "T Plays It Cool"
  139.     PERFORMER "Marvin Gaye"
  140.     FLAGS PRE
  141.     INDEX 01 45:30:00
  142.   TRACK 28 AUDIO
  143.     TITLE "Holy Ghost"
  144.     PERFORMER "The Bar-Kays"
  145.     FLAGS PRE
  146.     INDEX 01 47:17:00
  147.   TRACK 29 AUDIO
  148.     TITLE "Diplodocus"
  149.     PERFORMER "Noisia"
  150.     FLAGS PRE
  151.     INDEX 01 50:54:00
  152.   TRACK 30 AUDIO
  153.     TITLE "Vintage"
  154.     PERFORMER "Phace"
  155.     FLAGS PRE
  156.     INDEX 01 52:23:00
  157.   TRACK 31 AUDIO
  158.     TITLE "Untitled"
  159.     PERFORMER "The Upbeats & Teknik"
  160.     FLAGS PRE
  161.     INDEX 01 53:52:00
  162.   TRACK 32 AUDIO
  163.     TITLE "Floating Zero"
  164.     PERFORMER "Noisia & Phace"
  165.     FLAGS PRE
  166.     INDEX 01 54:59:00
  167.   TRACK 33 AUDIO
  168.     TITLE "Full Circle"
  169.     PERFORMER "Rockwell"
  170.     FLAGS PRE
  171.     INDEX 01 55:44:00
  172.   TRACK 34 AUDIO
  173.     TITLE "The Observer"
  174.     PERFORMER "Alix Perez"
  175.     FLAGS PRE
  176.     INDEX 01 57:58:00
  177.   TRACK 35 AUDIO
  178.     TITLE "Bioform"
  179.     PERFORMER "Teebee"
  180.     FLAGS PRE
  181.     INDEX 01 59:05:00
  182.   TRACK 36 AUDIO
  183.     TITLE "Wrong Way"
  184.     PERFORMER "Abstract Elements"
  185.     FLAGS PRE
  186.     INDEX 01 61:41:00
  187.   TRACK 37 AUDIO
  188.     TITLE "Ease Forward"
  189.     PERFORMER "Noisia & Joe Seven"
  190.     FLAGS PRE
  191.     INDEX 01 63:10:00
  192.   TRACK 38 AUDIO
  193.     TITLE "Falling Through"
  194.     PERFORMER "Noisia & Spor"
  195.     FLAGS PRE
  196.     INDEX 01 65:02:00
  197.   TRACK 39 AUDIO
  198.     TITLE "Silicon"
  199.     PERFORMER "Noisia"
  200.     FLAGS PRE
  201.     INDEX 01 66:31:00
  202.   TRACK 40 AUDIO
  203.     TITLE "Mpd"
  204.     PERFORMER "Noisia & Phace"
  205.     FLAGS PRE
  206.     INDEX 01 67:16:00
  207.   TRACK 41 AUDIO
  208.     TITLE "Creep Out"
  209.     PERFORMER "Noisia & The Upbeats"
  210.     FLAGS PRE
  211.     INDEX 01 68:23:00
  212.   TRACK 42 AUDIO
  213.     TITLE "Soul Purge"
  214.     PERFORMER "Noisia & Foreign Beggars"
  215.     FLAGS PRE
  216.     INDEX 01 69:52:00
  217.   TRACK 43 AUDIO
  218.     TITLE "Head Knot"
  219.     PERFORMER "Noisia"
  220.     FLAGS PRE
  221.     INDEX 01 71:21:00
  222.   TRACK 44 AUDIO
  223.     TITLE "El Cargo"
  224.     PERFORMER "Amon Tobin"
  225.     FLAGS PRE
  226.     INDEX 01 72:28:00
  227.   TRACK 45 AUDIO
  228.     TITLE "Whiskers"
  229.     PERFORMER "Noisia"
  230.     FLAGS PRE
  231.     INDEX 01 75:27:00
  232.   TRACK 46 AUDIO
  233.     TITLE "Aerodynamic"
  234.     PERFORMER "Daft Punk"
  235.     FLAGS PRE
  236.     INDEX 01 76:36:00
  237.   TRACK 47 AUDIO
  238.     TITLE "Peacock Strut"
  239.     PERFORMER "Noisia"
  240.     FLAGS PRE
  241.     INDEX 01 79:24:00
  242.   TRACK 48 AUDIO
  243.     TITLE "Three And A Half"
  244.     PERFORMER "Noisia & Sub Focus"
  245.     FLAGS PRE
  246.     INDEX 01 80:55:00
  247.   TRACK 49 AUDIO
  248.     TITLE "Last Night A DJ Killed My Dog"
  249.     PERFORMER "Mr. Oizo"
  250.     FLAGS PRE
  251.     INDEX 01 81:40:00
  252.   TRACK 50 AUDIO
  253.     TITLE "Red Heat vs. Oh Yeah"
  254.     PERFORMER "Noisia vs. Daft Punk"
  255.     FLAGS PRE
  256.     INDEX 01 83:09:00
  257.   TRACK 51 AUDIO
  258.     TITLE "Idiotheque"
  259.     PERFORMER "Radiohead"
  260.     FLAGS PRE
  261.     INDEX 01 85:32:00
  262.   TRACK 52 AUDIO
  263.     TITLE "Feeling Like We Do"
  264.     PERFORMER "Consequence"
  265.     FLAGS PRE
  266.     INDEX 01 88:58:00
  267.   TRACK 53 AUDIO
  268.     TITLE "Shadow"
  269.     PERFORMER "Misanthrop"
  270.     FLAGS PRE
  271.     INDEX 01 89:58:00
  272.   TRACK 54 AUDIO
  273.     TITLE "Omen (Noisia Remix)"
  274.     PERFORMER "The Prodigy"
  275.     FLAGS PRE
  276.     INDEX 01 91:58:00
  277.   TRACK 55 AUDIO
  278.     TITLE "Taijitsu"
  279.     PERFORMER "Dom & Noisia"
  280.     FLAGS PRE
  281.     INDEX 01 97:02:00
  282.   TRACK 56 AUDIO
  283.     TITLE "My World (feat. Giovanca)"
  284.     PERFORMER "Noisia"
  285.     FLAGS PRE
  286.     INDEX 01 100:00:00
  287.   TRACK 57 AUDIO
  288.     TITLE "Aztec (Noisia Essential Mix Edit)"
  289.     PERFORMER "Spor"
  290.     FLAGS PRE
  291.     INDEX 01 104:28:00
  292.   TRACK 58 AUDIO
  293.     TITLE "Shellshock"
  294.     PERFORMER "Noisia & Foreign Beggars"
  295.     FLAGS PRE
  296.     INDEX 01 105:57:00
  297.   TRACK 59 AUDIO
  298.     TITLE "Stigma (Noisia Essential Mix Edit)"
  299.     PERFORMER "Noisia"
  300.     FLAGS PRE
  301.     INDEX 01 109:18:00
  302.   TRACK 60 AUDIO
  303.     TITLE "Sunhammer"
  304.     PERFORMER "Noisia & Amon Tobin"
  305.     FLAGS PRE
  306.     INDEX 01 111:49:00
  307.   TRACK 61 AUDIO
  308.     TITLE "Square Feet"
  309.     PERFORMER "Noisia"
  310.     FLAGS PRE
  311.     INDEX 01 114:25:00
  312.   TRACK 62 AUDIO
  313.     TITLE "Dipsaus"
  314.     PERFORMER "Opgezwolle"
  315.     FLAGS PRE
  316.     INDEX 01 116:08:00
  317.   TRACK 63 AUDIO
  318.     TITLE "Split The Atom"
  319.     PERFORMER "Noisia"
  320.     FLAGS PRE
  321.     INDEX 01 116:50:00
RAW Paste Data
We use cookies for various purposes including analytics. By continuing to use Pastebin, you agree to our use of cookies as described in the Cookies Policy. OK, I Understand
Top