SHARE
TWEET

Untitled

mft39anton May 24th, 2018 106 Never
Not a member of Pastebin yet? Sign Up, it unlocks many cool features!
  1. Disc Title:     Premonitions 2015
  2. Disc Size:      23,212,911,483 bytes
  3. Protection:     AACS
  4. BD-Java:        Yes
  5. BDInfo:         0.5.8
  6.  
  7. Notes:          
  8.  
  9. BDINFO HOME:
  10.   Cinema Squid
  11.     http://www.cinemasquid.com/blu-ray/tools/bdinfo
  12.  
  13. INCLUDES FORUMS REPORT FOR:
  14.   AVS Forum Blu-ray Audio and Video Specifications Thread
  15.     http://www.avsforum.com/avs-vb/showthread.php?t=1155731
  16.  
  17.  
  18. ********************
  19. PLAYLIST: 00002.MPLS
  20. ********************
  21.  
  22. <--- BEGIN FORUMS PASTE --->
  23. [code]
  24.                                                                                                                 Total   Video                                            
  25. Title                                                           Codec   Length  Movie Size      Disc Size       Bitrate Bitrate Main Audio Track                          Secondary Audio Track
  26. -----                                                           ------  ------- --------------  --------------  ------- ------- ------------------                        ---------------------
  27. 00002.MPLS                                                      AVC     1:41:45 20,739,053,568  23,212,911,483  27.18   18.00   DTS-HD Master 5.1 3711Kbps (48kHz/24-bit)
  28. [/code]
  29.  
  30. [code]
  31.  
  32. DISC INFO:
  33.  
  34. Disc Title:     Premonitions 2015
  35. Disc Size:      23,212,911,483 bytes
  36. Protection:     AACS
  37. BD-Java:        Yes
  38. BDInfo:         0.5.8
  39.  
  40. PLAYLIST REPORT:
  41.  
  42. Name:                   00002.MPLS
  43. Length:                 1:41:45.000 (h:m:s.ms)
  44. Size:                   20,739,053,568 bytes
  45. Total Bitrate:          27.18 Mbps
  46.  
  47. VIDEO:
  48.  
  49. Codec                   Bitrate             Description    
  50. -----                   -------             -----------    
  51. MPEG-4 AVC Video        17999 kbps          1080p / 24 fps / 16:9 / High Profile 4.1
  52.  
  53. AUDIO:
  54.  
  55. Codec                           Language        Bitrate         Description    
  56. -----                           --------        -------         -----------    
  57. DTS-HD Master Audio             Italian         3711 kbps       5.1 / 48 kHz / 3711 kbps / 24-bit (DTS Core: 5.1 / 48 kHz / 1509 kbps / 24-bit)
  58. DTS-HD Master Audio             English         3761 kbps       5.1 / 48 kHz / 3761 kbps / 24-bit (DTS Core: 5.1 / 48 kHz / 1509 kbps / 24-bit)
  59.  
  60. SUBTITLES:
  61.  
  62. Codec                           Language        Bitrate         Description    
  63. -----                           --------        -------         -----------    
  64. Presentation Graphics           Italian         26.223 kbps                    
  65.  
  66. FILES:
  67.  
  68. Name            Time In         Length          Size            Total Bitrate  
  69. ----            -------         ------          ----            -------------  
  70. 00002.M2TS      0:00:00.000     1:41:45.000     20,739,053,568  27,176          
  71.  
  72. CHAPTERS:
  73.  
  74. Number          Time In         Length          Avg Video Rate  Max 1-Sec Rate  Max 1-Sec Time  Max 5-Sec Rate  Max 5-Sec Time  Max 10Sec Rate  Max 10Sec Time  Avg Frame Size  Max Frame Size  Max Frame Time  
  75. ------          -------         ------          --------------  --------------  --------------  --------------  --------------  --------------  --------------  --------------  --------------  --------------  
  76. 1               0:00:00.000     1:41:45.000     17,999 kbps     52,381 kbps     00:28:08.416    32,555 kbps     00:51:00.583    29,661 kbps     00:51:57.708    93,744 bytes    709,121 bytes   00:29:09.083    
  77.  
  78. STREAM DIAGNOSTICS:
  79.  
  80. File            PID             Type            Codec           Language                Seconds                 Bitrate                 Bytes           Packets        
  81. ----            ---             ----            -----           --------                --------------          --------------          -------------   -----          
  82. 00002.M2TS      4113 (0x1011)   0x1B            AVC                                     6104.833                17,999                  13,735,300,926  74,733,511      
  83. 00002.M2TS      4352 (0x1100)   0x86            DTS-HD MA       ita (Italian)           6104.833                3,711                   2,832,221,076   16,344,374      
  84. 00002.M2TS      4353 (0x1101)   0x86            DTS-HD MA       eng (English)           6104.833                3,761                   2,870,071,088   16,549,993      
  85. 00002.M2TS      4608 (0x1200)   0x90            PGS             ita (Italian)           6104.833                26                      20,011,529      116,732        
  86.  
  87. [/code]
  88. <---- END FORUMS PASTE ---->
  89.  
  90. QUICK SUMMARY:
  91.  
  92. Disc Title: Premonitions 2015
  93. Disc Size: 23,212,911,483 bytes
  94. Protection: AACS
  95. BD-Java: Yes
  96. Playlist: 00002.MPLS
  97. Size: 20,739,053,568 bytes
  98. Length: 1:41:45.000
  99. Total Bitrate: 27.18 Mbps
  100. Video: MPEG-4 AVC Video / 17999 kbps / 1080p / 24 fps / 16:9 / High Profile 4.1
  101. Audio: Italian / DTS-HD Master Audio / 5.1 / 48 kHz / 3711 kbps / 24-bit (DTS Core: 5.1 / 48 kHz / 1509 kbps / 24-bit)
  102. Audio: English / DTS-HD Master Audio / 5.1 / 48 kHz / 3761 kbps / 24-bit (DTS Core: 5.1 / 48 kHz / 1509 kbps / 24-bit)
  103. Subtitle: Italian / 26.223 kbps
  104.  
  105.  
  106. ********************
  107. PLAYLIST: 01002.MPLS
  108. ********************
  109.  
  110. <--- BEGIN FORUMS PASTE --->
  111. [code]
  112.                                                                                                                 Total   Video                                            
  113. Title                                                           Codec   Length  Movie Size      Disc Size       Bitrate Bitrate Main Audio Track                          Secondary Audio Track
  114. -----                                                           ------  ------- --------------  --------------  ------- ------- ------------------                        ---------------------
  115. 01002.MPLS                                                      AVC     1:41:45 20,739,053,568  23,212,911,483  27.18   18.00   DTS-HD Master 5.1 3711Kbps (48kHz/24-bit)
  116. [/code]
  117.  
  118. [code]
  119.  
  120. DISC INFO:
  121.  
  122. Disc Title:     Premonitions 2015
  123. Disc Size:      23,212,911,483 bytes
  124. Protection:     AACS
  125. BD-Java:        Yes
  126. BDInfo:         0.5.8
  127.  
  128. PLAYLIST REPORT:
  129.  
  130. Name:                   01002.MPLS
  131. Length:                 1:41:45.000 (h:m:s.ms)
  132. Size:                   20,739,053,568 bytes
  133. Total Bitrate:          27.18 Mbps
  134.  
  135. VIDEO:
  136.  
  137. Codec                   Bitrate             Description    
  138. -----                   -------             -----------    
  139. MPEG-4 AVC Video        17999 kbps          1080p / 24 fps / 16:9 / High Profile 4.1
  140.  
  141. AUDIO:
  142.  
  143. Codec                           Language        Bitrate         Description    
  144. -----                           --------        -------         -----------    
  145. DTS-HD Master Audio             Italian         3711 kbps       5.1 / 48 kHz / 3711 kbps / 24-bit (DTS Core: 5.1 / 48 kHz / 1509 kbps / 24-bit)
  146. DTS-HD Master Audio             English         3761 kbps       5.1 / 48 kHz / 3761 kbps / 24-bit (DTS Core: 5.1 / 48 kHz / 1509 kbps / 24-bit)
  147.  
  148. SUBTITLES:
  149.  
  150. Codec                           Language        Bitrate         Description    
  151. -----                           --------        -------         -----------    
  152. Presentation Graphics           Italian         26.223 kbps                    
  153.  
  154. FILES:
  155.  
  156. Name            Time In         Length          Size            Total Bitrate  
  157. ----            -------         ------          ----            -------------  
  158. 00002.M2TS      0:00:00.000     1:41:45.000     20,739,053,568  27,176          
  159.  
  160. CHAPTERS:
  161.  
  162. Number          Time In         Length          Avg Video Rate  Max 1-Sec Rate  Max 1-Sec Time  Max 5-Sec Rate  Max 5-Sec Time  Max 10Sec Rate  Max 10Sec Time  Avg Frame Size  Max Frame Size  Max Frame Time  
  163. ------          -------         ------          --------------  --------------  --------------  --------------  --------------  --------------  --------------  --------------  --------------  --------------  
  164. 1               0:00:00.000     0:04:36.333     17,265 kbps     37,765 kbps     00:04:29.833    31,731 kbps     00:04:29.791    27,129 kbps     00:04:25.124    89,909 bytes    572,421 bytes   00:04:33.375    
  165. 2               0:04:36.333     0:07:02.708     20,379 kbps     42,455 kbps     00:11:24.458    29,943 kbps     00:05:57.958    25,899 kbps     00:04:41.833    106,140 bytes   687,042 bytes   00:05:55.750    
  166. 3               0:11:39.041     0:09:23.916     18,389 kbps     45,274 kbps     00:14:06.916    28,572 kbps     00:14:04.583    25,781 kbps     00:17:05.874    95,774 bytes    526,533 bytes   00:14:07.000    
  167. 4               0:21:02.958     0:09:51.333     19,741 kbps     52,381 kbps     00:28:08.416    29,205 kbps     00:28:04.500    25,503 kbps     00:22:33.124    102,816 bytes   709,121 bytes   00:29:09.083    
  168. 5               0:30:54.291     0:07:20.250     18,957 kbps     30,358 kbps     00:35:12.750    27,091 kbps     00:35:10.958    25,434 kbps     00:35:11.083    98,736 bytes    454,205 bytes   00:35:11.291    
  169. 6               0:38:14.541     0:08:21.291     22,690 kbps     37,459 kbps     00:45:04.083    29,960 kbps     00:40:30.166    29,585 kbps     00:40:30.000    118,177 bytes   414,540 bytes   00:39:54.833    
  170. 7               0:46:35.833     0:05:54.916     20,864 kbps     45,925 kbps     00:49:31.041    32,555 kbps     00:51:00.583    29,661 kbps     00:51:57.708    108,668 bytes   626,121 bytes   00:51:02.750    
  171. 8               0:52:30.750     0:04:20.833     20,552 kbps     42,065 kbps     00:56:26.750    29,888 kbps     00:56:24.625    26,165 kbps     00:54:30.291    107,041 bytes   652,582 bytes   00:53:09.041    
  172. 9               0:56:51.583     0:04:07.083     17,440 kbps     39,042 kbps     00:58:08.083    29,262 kbps     00:58:07.541    26,071 kbps     00:57:59.625    90,834 bytes    556,648 bytes   00:58:20.791    
  173. 10              1:00:58.666     0:05:39.458     17,767 kbps     34,550 kbps     01:05:18.333    29,784 kbps     01:05:31.083    28,688 kbps     01:05:31.291    92,534 bytes    509,384 bytes   01:05:18.875    
  174. 11              1:06:38.125     0:05:30.541     18,133 kbps     34,421 kbps     01:07:46.250    26,679 kbps     01:07:45.750    23,142 kbps     01:09:07.249    94,442 bytes    569,853 bytes   01:07:34.083    
  175. 12              1:12:08.666     0:07:09.541     16,201 kbps     36,846 kbps     01:13:02.791    27,989 kbps     01:12:45.250    24,039 kbps     01:12:40.958    84,381 bytes    531,793 bytes   01:13:28.750    
  176. 13              1:19:18.208     0:04:54.916     17,484 kbps     43,387 kbps     01:23:05.708    24,626 kbps     01:20:26.583    23,438 kbps     01:23:15.708    91,063 bytes    563,560 bytes   01:23:06.250    
  177. 14              1:24:13.125     0:06:44.625     16,625 kbps     38,315 kbps     01:28:40.583    25,530 kbps     01:28:25.750    24,180 kbps     01:28:20.708    86,586 bytes    475,549 bytes   01:30:57.250    
  178. 15              1:30:57.750     0:04:24.833     20,113 kbps     33,738 kbps     01:35:15.041    29,434 kbps     01:35:14.750    27,388 kbps     01:35:11.208    104,757 bytes   502,850 bytes   01:32:53.000    
  179. 16              1:35:22.583     0:06:22.416     3,833 kbps      12,568 kbps     01:40:52.541    10,689 kbps     01:40:49.583    10,174 kbps     01:40:49.541    19,964 bytes    223,414 bytes   01:40:53.083    
  180.  
  181. STREAM DIAGNOSTICS:
  182.  
  183. File            PID             Type            Codec           Language                Seconds                 Bitrate                 Bytes           Packets        
  184. ----            ---             ----            -----           --------                --------------          --------------          -------------   -----          
  185. 00002.M2TS      4113 (0x1011)   0x1B            AVC                                     6104.833                17,999                  13,735,300,926  74,733,511      
  186. 00002.M2TS      4352 (0x1100)   0x86            DTS-HD MA       ita (Italian)           6104.833                3,711                   2,832,221,076   16,344,374      
  187. 00002.M2TS      4353 (0x1101)   0x86            DTS-HD MA       eng (English)           6104.833                3,761                   2,870,071,088   16,549,993      
  188. 00002.M2TS      4608 (0x1200)   0x90            PGS             ita (Italian)           6104.833                26                      20,011,529      116,732        
  189.  
  190. [/code]
  191. <---- END FORUMS PASTE ---->
  192.  
  193. QUICK SUMMARY:
  194.  
  195. Disc Title: Premonitions 2015
  196. Disc Size: 23,212,911,483 bytes
  197. Protection: AACS
  198. BD-Java: Yes
  199. Playlist: 01002.MPLS
  200. Size: 20,739,053,568 bytes
  201. Length: 1:41:45.000
  202. Total Bitrate: 27.18 Mbps
  203. Video: MPEG-4 AVC Video / 17999 kbps / 1080p / 24 fps / 16:9 / High Profile 4.1
  204. Audio: Italian / DTS-HD Master Audio / 5.1 / 48 kHz / 3711 kbps / 24-bit (DTS Core: 5.1 / 48 kHz / 1509 kbps / 24-bit)
  205. Audio: English / DTS-HD Master Audio / 5.1 / 48 kHz / 3761 kbps / 24-bit (DTS Core: 5.1 / 48 kHz / 1509 kbps / 24-bit)
  206. Subtitle: Italian / 26.223 kbps
  207.  
  208.  
  209. ********************
  210. PLAYLIST: 00005.MPLS
  211. ********************
  212.  
  213. <--- BEGIN FORUMS PASTE --->
  214. [code]
  215.                                                                                                                 Total   Video                                            
  216. Title                                                           Codec   Length  Movie Size      Disc Size       Bitrate Bitrate Main Audio Track                          Secondary Audio Track
  217. -----                                                           ------  ------- --------------  --------------  ------- ------- ------------------                        ---------------------
  218. 00005.MPLS                                                      AVC     0:05:29 1,228,621,824   23,212,911,483  29.80   28.25   DD AC3 2.0 192Kbps                        
  219. [/code]
  220.  
  221. [code]
  222.  
  223. DISC INFO:
  224.  
  225. Disc Title:     Premonitions 2015
  226. Disc Size:      23,212,911,483 bytes
  227. Protection:     AACS
  228. BD-Java:        Yes
  229. BDInfo:         0.5.8
  230.  
  231. PLAYLIST REPORT:
  232.  
  233. Name:                   00005.MPLS
  234. Length:                 0:05:29.791 (h:m:s.ms)
  235. Size:                   1,228,621,824 bytes
  236. Total Bitrate:          29.80 Mbps
  237.  
  238. VIDEO:
  239.  
  240. Codec                   Bitrate             Description    
  241. -----                   -------             -----------    
  242. MPEG-4 AVC Video        28246 kbps          1080p / 24 fps / 16:9 / High Profile 4.1
  243.  
  244. AUDIO:
  245.  
  246. Codec                           Language        Bitrate         Description    
  247. -----                           --------        -------         -----------    
  248. Dolby Digital Audio             English         192 kbps        2.0 / 48 kHz / 192 kbps / DN -4dB
  249.  
  250. FILES:
  251.  
  252. Name            Time In         Length          Size            Total Bitrate  
  253. ----            -------         ------          ----            -------------  
  254. 00005.M2TS      0:00:00.000     0:05:29.791     1,228,621,824   29,804          
  255.  
  256. CHAPTERS:
  257.  
  258. Number          Time In         Length          Avg Video Rate  Max 1-Sec Rate  Max 1-Sec Time  Max 5-Sec Rate  Max 5-Sec Time  Max 10Sec Rate  Max 10Sec Time  Avg Frame Size  Max Frame Size  Max Frame Time  
  259. ------          -------         ------          --------------  --------------  --------------  --------------  --------------  --------------  --------------  --------------  --------------  --------------  
  260. 1               0:00:00.000     0:05:29.791     28,246 kbps     48,061 kbps     00:00:00.958    33,730 kbps     00:01:56.791    32,875 kbps     00:02:07.583    147,115 bytes   660,962 bytes   00:00:01.041    
  261.  
  262. STREAM DIAGNOSTICS:
  263.  
  264. File            PID             Type            Codec           Language                Seconds                 Bitrate                 Bytes           Packets        
  265. ----            ---             ----            -----           --------                --------------          --------------          -------------   -----          
  266. 00005.M2TS      4113 (0x1011)   0x1B            AVC                                     329.667                 28,257                  1,164,419,176   6,332,873      
  267. 00005.M2TS      4352 (0x1100)   0x81            AC3             eng (English)           329.667                 192                     7,915,008       51,530          
  268.  
  269. [/code]
  270. <---- END FORUMS PASTE ---->
  271.  
  272. QUICK SUMMARY:
  273.  
  274. Disc Title: Premonitions 2015
  275. Disc Size: 23,212,911,483 bytes
  276. Protection: AACS
  277. BD-Java: Yes
  278. Playlist: 00005.MPLS
  279. Size: 1,228,621,824 bytes
  280. Length: 0:05:29.791
  281. Total Bitrate: 29.80 Mbps
  282. Video: MPEG-4 AVC Video / 28246 kbps / 1080p / 24 fps / 16:9 / High Profile 4.1
  283. Audio: English / Dolby Digital Audio / 2.0 / 48 kHz / 192 kbps / DN -4dB
  284.  
  285.  
  286. ********************
  287. PLAYLIST: 01005.MPLS
  288. ********************
  289.  
  290. <--- BEGIN FORUMS PASTE --->
  291. [code]
  292.                                                                                                                 Total   Video                                            
  293. Title                                                           Codec   Length  Movie Size      Disc Size       Bitrate Bitrate Main Audio Track                          Secondary Audio Track
  294. -----                                                           ------  ------- --------------  --------------  ------- ------- ------------------                        ---------------------
  295. 01005.MPLS                                                      AVC     0:05:29 1,228,621,824   23,212,911,483  29.80   28.25   DD AC3 2.0 192Kbps                        
  296. [/code]
  297.  
  298. [code]
  299.  
  300. DISC INFO:
  301.  
  302. Disc Title:     Premonitions 2015
  303. Disc Size:      23,212,911,483 bytes
  304. Protection:     AACS
  305. BD-Java:        Yes
  306. BDInfo:         0.5.8
  307.  
  308. PLAYLIST REPORT:
  309.  
  310. Name:                   01005.MPLS
  311. Length:                 0:05:29.791 (h:m:s.ms)
  312. Size:                   1,228,621,824 bytes
  313. Total Bitrate:          29.80 Mbps
  314.  
  315. VIDEO:
  316.  
  317. Codec                   Bitrate             Description    
  318. -----                   -------             -----------    
  319. MPEG-4 AVC Video        28246 kbps          1080p / 24 fps / 16:9 / High Profile 4.1
  320.  
  321. AUDIO:
  322.  
  323. Codec                           Language        Bitrate         Description    
  324. -----                           --------        -------         -----------    
  325. Dolby Digital Audio             English         192 kbps        2.0 / 48 kHz / 192 kbps / DN -4dB
  326.  
  327. FILES:
  328.  
  329. Name            Time In         Length          Size            Total Bitrate  
  330. ----            -------         ------          ----            -------------  
  331. 00005.M2TS      0:00:00.000     0:05:29.791     1,228,621,824   29,804          
  332.  
  333. CHAPTERS:
  334.  
  335. Number          Time In         Length          Avg Video Rate  Max 1-Sec Rate  Max 1-Sec Time  Max 5-Sec Rate  Max 5-Sec Time  Max 10Sec Rate  Max 10Sec Time  Avg Frame Size  Max Frame Size  Max Frame Time  
  336. ------          -------         ------          --------------  --------------  --------------  --------------  --------------  --------------  --------------  --------------  --------------  --------------  
  337. 1               0:00:00.000     0:05:29.791     28,246 kbps     48,061 kbps     00:00:00.958    33,730 kbps     00:01:56.791    32,875 kbps     00:02:07.583    147,115 bytes   660,962 bytes   00:00:01.041    
  338.  
  339. STREAM DIAGNOSTICS:
  340.  
  341. File            PID             Type            Codec           Language                Seconds                 Bitrate                 Bytes           Packets        
  342. ----            ---             ----            -----           --------                --------------          --------------          -------------   -----          
  343. 00005.M2TS      4113 (0x1011)   0x1B            AVC                                     329.667                 28,257                  1,164,419,176   6,332,873      
  344. 00005.M2TS      4352 (0x1100)   0x81            AC3             eng (English)           329.667                 192                     7,915,008       51,530          
  345.  
  346. [/code]
  347. <---- END FORUMS PASTE ---->
  348.  
  349. QUICK SUMMARY:
  350.  
  351. Disc Title: Premonitions 2015
  352. Disc Size: 23,212,911,483 bytes
  353. Protection: AACS
  354. BD-Java: Yes
  355. Playlist: 01005.MPLS
  356. Size: 1,228,621,824 bytes
  357. Length: 0:05:29.791
  358. Total Bitrate: 29.80 Mbps
  359. Video: MPEG-4 AVC Video / 28246 kbps / 1080p / 24 fps / 16:9 / High Profile 4.1
  360. Audio: English / Dolby Digital Audio / 2.0 / 48 kHz / 192 kbps / DN -4dB
  361.  
  362.  
  363. ********************
  364. PLAYLIST: 00006.MPLS
  365. ********************
  366.  
  367. <--- BEGIN FORUMS PASTE --->
  368. [code]
  369.                                                                                                                 Total   Video                                            
  370. Title                                                           Codec   Length  Movie Size      Disc Size       Bitrate Bitrate Main Audio Track                          Secondary Audio Track
  371. -----                                                           ------  ------- --------------  --------------  ------- ------- ------------------                        ---------------------
  372. 00006.MPLS                                                      AVC     0:04:17 514,215,936     23,212,911,483  15.98   14.99   DD AC3 2.0 192Kbps                        
  373. [/code]
  374.  
  375. [code]
  376.  
  377. DISC INFO:
  378.  
  379. Disc Title:     Premonitions 2015
  380. Disc Size:      23,212,911,483 bytes
  381. Protection:     AACS
  382. BD-Java:        Yes
  383. BDInfo:         0.5.8
  384.  
  385. PLAYLIST REPORT:
  386.  
  387. Name:                   00006.MPLS
  388. Length:                 0:04:17.500 (h:m:s.ms)
  389. Size:                   514,215,936 bytes
  390. Total Bitrate:          15.98 Mbps
  391.  
  392. VIDEO:
  393.  
  394. Codec                   Bitrate             Description    
  395. -----                   -------             -----------    
  396. MPEG-4 AVC Video        14994 kbps          1080p / 24 fps / 16:9 / High Profile 4.1
  397.  
  398. AUDIO:
  399.  
  400. Codec                           Language        Bitrate         Description    
  401. -----                           --------        -------         -----------    
  402. Dolby Digital Audio             English         192 kbps        2.0 / 48 kHz / 192 kbps / DN -4dB
  403.  
  404. FILES:
  405.  
  406. Name            Time In         Length          Size            Total Bitrate  
  407. ----            -------         ------          ----            -------------  
  408. 00006.M2TS      0:00:00.000     0:04:17.500     514,215,936     15,976          
  409.  
  410. CHAPTERS:
  411.  
  412. Number          Time In         Length          Avg Video Rate  Max 1-Sec Rate  Max 1-Sec Time  Max 5-Sec Rate  Max 5-Sec Time  Max 10Sec Rate  Max 10Sec Time  Avg Frame Size  Max Frame Size  Max Frame Time  
  413. ------          -------         ------          --------------  --------------  --------------  --------------  --------------  --------------  --------------  --------------  --------------  --------------  
  414. 1               0:00:00.000     0:04:17.500     14,994 kbps     18,793 kbps     00:03:28.958    16,755 kbps     00:01:13.166    16,704 kbps     00:02:24.375    78,094 bytes    452,636 bytes   00:03:30.000    
  415.  
  416. STREAM DIAGNOSTICS:
  417.  
  418. File            PID             Type            Codec           Language                Seconds                 Bitrate                 Bytes           Packets        
  419. ----            ---             ----            -----           --------                --------------          --------------          -------------   -----          
  420. 00006.M2TS      4113 (0x1011)   0x1B            AVC                                     257.333                 15,004                  482,619,910     2,626,500      
  421. 00006.M2TS      4352 (0x1100)   0x81            AC3             eng (English)           257.333                 192                     6,180,096       40,235          
  422.  
  423. [/code]
  424. <---- END FORUMS PASTE ---->
  425.  
  426. QUICK SUMMARY:
  427.  
  428. Disc Title: Premonitions 2015
  429. Disc Size: 23,212,911,483 bytes
  430. Protection: AACS
  431. BD-Java: Yes
  432. Playlist: 00006.MPLS
  433. Size: 514,215,936 bytes
  434. Length: 0:04:17.500
  435. Total Bitrate: 15.98 Mbps
  436. Video: MPEG-4 AVC Video / 14994 kbps / 1080p / 24 fps / 16:9 / High Profile 4.1
  437. Audio: English / Dolby Digital Audio / 2.0 / 48 kHz / 192 kbps / DN -4dB
  438.  
  439.  
  440. ********************
  441. PLAYLIST: 01006.MPLS
  442. ********************
  443.  
  444. <--- BEGIN FORUMS PASTE --->
  445. [code]
  446.                                                                                                                 Total   Video                                            
  447. Title                                                           Codec   Length  Movie Size      Disc Size       Bitrate Bitrate Main Audio Track                          Secondary Audio Track
  448. -----                                                           ------  ------- --------------  --------------  ------- ------- ------------------                        ---------------------
  449. 01006.MPLS                                                      AVC     0:04:17 514,215,936     23,212,911,483  15.98   14.99   DD AC3 2.0 192Kbps                        
  450. [/code]
  451.  
  452. [code]
  453.  
  454. DISC INFO:
  455.  
  456. Disc Title:     Premonitions 2015
  457. Disc Size:      23,212,911,483 bytes
  458. Protection:     AACS
  459. BD-Java:        Yes
  460. BDInfo:         0.5.8
  461.  
  462. PLAYLIST REPORT:
  463.  
  464. Name:                   01006.MPLS
  465. Length:                 0:04:17.500 (h:m:s.ms)
  466. Size:                   514,215,936 bytes
  467. Total Bitrate:          15.98 Mbps
  468.  
  469. VIDEO:
  470.  
  471. Codec                   Bitrate             Description    
  472. -----                   -------             -----------    
  473. MPEG-4 AVC Video        14994 kbps          1080p / 24 fps / 16:9 / High Profile 4.1
  474.  
  475. AUDIO:
  476.  
  477. Codec                           Language        Bitrate         Description    
  478. -----                           --------        -------         -----------    
  479. Dolby Digital Audio             English         192 kbps        2.0 / 48 kHz / 192 kbps / DN -4dB
  480.  
  481. FILES:
  482.  
  483. Name            Time In         Length          Size            Total Bitrate  
  484. ----            -------         ------          ----            -------------  
  485. 00006.M2TS      0:00:00.000     0:04:17.500     514,215,936     15,976          
  486.  
  487. CHAPTERS:
  488.  
  489. Number          Time In         Length          Avg Video Rate  Max 1-Sec Rate  Max 1-Sec Time  Max 5-Sec Rate  Max 5-Sec Time  Max 10Sec Rate  Max 10Sec Time  Avg Frame Size  Max Frame Size  Max Frame Time  
  490. ------          -------         ------          --------------  --------------  --------------  --------------  --------------  --------------  --------------  --------------  --------------  --------------  
  491. 1               0:00:00.000     0:04:17.500     14,994 kbps     18,793 kbps     00:03:28.958    16,755 kbps     00:01:13.166    16,704 kbps     00:02:24.375    78,094 bytes    452,636 bytes   00:03:30.000    
  492.  
  493. STREAM DIAGNOSTICS:
  494.  
  495. File            PID             Type            Codec           Language                Seconds                 Bitrate                 Bytes           Packets        
  496. ----            ---             ----            -----           --------                --------------          --------------          -------------   -----          
  497. 00006.M2TS      4113 (0x1011)   0x1B            AVC                                     257.333                 15,004                  482,619,910     2,626,500      
  498. 00006.M2TS      4352 (0x1100)   0x81            AC3             eng (English)           257.333                 192                     6,180,096       40,235          
  499.  
  500. [/code]
  501. <---- END FORUMS PASTE ---->
  502.  
  503. QUICK SUMMARY:
  504.  
  505. Disc Title: Premonitions 2015
  506. Disc Size: 23,212,911,483 bytes
  507. Protection: AACS
  508. BD-Java: Yes
  509. Playlist: 01006.MPLS
  510. Size: 514,215,936 bytes
  511. Length: 0:04:17.500
  512. Total Bitrate: 15.98 Mbps
  513. Video: MPEG-4 AVC Video / 14994 kbps / 1080p / 24 fps / 16:9 / High Profile 4.1
  514. Audio: English / Dolby Digital Audio / 2.0 / 48 kHz / 192 kbps / DN -4dB
  515.  
  516.  
  517. ********************
  518. PLAYLIST: 00004.MPLS
  519. ********************
  520.  
  521. <--- BEGIN FORUMS PASTE --->
  522. [code]
  523.                                                                                                                 Total   Video                                            
  524. Title                                                           Codec   Length  Movie Size      Disc Size       Bitrate Bitrate Main Audio Track                          Secondary Audio Track
  525. -----                                                           ------  ------- --------------  --------------  ------- ------- ------------------                        ---------------------
  526. 00004.MPLS                                                      AVC     0:03:07 349,716,480     23,212,911,483  14.95   14.01   DD AC3 2.0 192Kbps                        
  527. [/code]
  528.  
  529. [code]
  530.  
  531. DISC INFO:
  532.  
  533. Disc Title:     Premonitions 2015
  534. Disc Size:      23,212,911,483 bytes
  535. Protection:     AACS
  536. BD-Java:        Yes
  537. BDInfo:         0.5.8
  538.  
  539. PLAYLIST REPORT:
  540.  
  541. Name:                   00004.MPLS
  542. Length:                 0:03:07.166 (h:m:s.ms)
  543. Size:                   349,716,480 bytes
  544. Total Bitrate:          14.95 Mbps
  545.  
  546. VIDEO:
  547.  
  548. Codec                   Bitrate             Description    
  549. -----                   -------             -----------    
  550. MPEG-4 AVC Video        14009 kbps          1080p / 24 fps / 16:9 / High Profile 4.1
  551.  
  552. AUDIO:
  553.  
  554. Codec                           Language        Bitrate         Description    
  555. -----                           --------        -------         -----------    
  556. Dolby Digital Audio             English         192 kbps        2.0 / 48 kHz / 192 kbps / DN -4dB
  557.  
  558. FILES:
  559.  
  560. Name            Time In         Length          Size            Total Bitrate  
  561. ----            -------         ------          ----            -------------  
  562. 00004.M2TS      0:00:00.000     0:03:07.166     349,716,480     14,948          
  563.  
  564. CHAPTERS:
  565.  
  566. Number          Time In         Length          Avg Video Rate  Max 1-Sec Rate  Max 1-Sec Time  Max 5-Sec Rate  Max 5-Sec Time  Max 10Sec Rate  Max 10Sec Time  Avg Frame Size  Max Frame Size  Max Frame Time  
  567. ------          -------         ------          --------------  --------------  --------------  --------------  --------------  --------------  --------------  --------------  --------------  --------------  
  568. 1               0:00:00.000     0:03:07.166     14,009 kbps     31,497 kbps     00:00:06.541    22,368 kbps     00:00:02.333    20,703 kbps     00:00:01.458    72,964 bytes    472,673 bytes   00:01:21.750    
  569.  
  570. STREAM DIAGNOSTICS:
  571.  
  572. File            PID             Type            Codec           Language                Seconds                 Bitrate                 Bytes           Packets        
  573. ----            ---             ----            -----           --------                --------------          --------------          -------------   -----          
  574. 00004.M2TS      4113 (0x1011)   0x1B            AVC                                     187.083                 14,015                  327,755,708     1,783,846      
  575. 00004.M2TS      4352 (0x1100)   0x81            AC3             eng (English)           187.083                 192                     4,492,032       29,245          
  576.  
  577. [/code]
  578. <---- END FORUMS PASTE ---->
  579.  
  580. QUICK SUMMARY:
  581.  
  582. Disc Title: Premonitions 2015
  583. Disc Size: 23,212,911,483 bytes
  584. Protection: AACS
  585. BD-Java: Yes
  586. Playlist: 00004.MPLS
  587. Size: 349,716,480 bytes
  588. Length: 0:03:07.166
  589. Total Bitrate: 14.95 Mbps
  590. Video: MPEG-4 AVC Video / 14009 kbps / 1080p / 24 fps / 16:9 / High Profile 4.1
  591. Audio: English / Dolby Digital Audio / 2.0 / 48 kHz / 192 kbps / DN -4dB
  592.  
  593.  
  594. ********************
  595. PLAYLIST: 01004.MPLS
  596. ********************
  597.  
  598. <--- BEGIN FORUMS PASTE --->
  599. [code]
  600.                                                                                                                 Total   Video                                            
  601. Title                                                           Codec   Length  Movie Size      Disc Size       Bitrate Bitrate Main Audio Track                          Secondary Audio Track
  602. -----                                                           ------  ------- --------------  --------------  ------- ------- ------------------                        ---------------------
  603. 01004.MPLS                                                      AVC     0:03:07 349,716,480     23,212,911,483  14.95   14.01   DD AC3 2.0 192Kbps                        
  604. [/code]
  605.  
  606. [code]
  607.  
  608. DISC INFO:
  609.  
  610. Disc Title:     Premonitions 2015
  611. Disc Size:      23,212,911,483 bytes
  612. Protection:     AACS
  613. BD-Java:        Yes
  614. BDInfo:         0.5.8
  615.  
  616. PLAYLIST REPORT:
  617.  
  618. Name:                   01004.MPLS
  619. Length:                 0:03:07.166 (h:m:s.ms)
  620. Size:                   349,716,480 bytes
  621. Total Bitrate:          14.95 Mbps
  622.  
  623. VIDEO:
  624.  
  625. Codec                   Bitrate             Description    
  626. -----                   -------             -----------    
  627. MPEG-4 AVC Video        14009 kbps          1080p / 24 fps / 16:9 / High Profile 4.1
  628.  
  629. AUDIO:
  630.  
  631. Codec                           Language        Bitrate         Description    
  632. -----                           --------        -------         -----------    
  633. Dolby Digital Audio             English         192 kbps        2.0 / 48 kHz / 192 kbps / DN -4dB
  634.  
  635. FILES:
  636.  
  637. Name            Time In         Length          Size            Total Bitrate  
  638. ----            -------         ------          ----            -------------  
  639. 00004.M2TS      0:00:00.000     0:03:07.166     349,716,480     14,948          
  640.  
  641. CHAPTERS:
  642.  
  643. Number          Time In         Length          Avg Video Rate  Max 1-Sec Rate  Max 1-Sec Time  Max 5-Sec Rate  Max 5-Sec Time  Max 10Sec Rate  Max 10Sec Time  Avg Frame Size  Max Frame Size  Max Frame Time  
  644. ------          -------         ------          --------------  --------------  --------------  --------------  --------------  --------------  --------------  --------------  --------------  --------------  
  645. 1               0:00:00.000     0:03:07.166     14,009 kbps     31,497 kbps     00:00:06.541    22,368 kbps     00:00:02.333    20,703 kbps     00:00:01.458    72,964 bytes    472,673 bytes   00:01:21.750    
  646.  
  647. STREAM DIAGNOSTICS:
  648.  
  649. File            PID             Type            Codec           Language                Seconds                 Bitrate                 Bytes           Packets        
  650. ----            ---             ----            -----           --------                --------------          --------------          -------------   -----          
  651. 00004.M2TS      4113 (0x1011)   0x1B            AVC                                     187.083                 14,015                  327,755,708     1,783,846      
  652. 00004.M2TS      4352 (0x1100)   0x81            AC3             eng (English)           187.083                 192                     4,492,032       29,245          
  653.  
  654. [/code]
  655. <---- END FORUMS PASTE ---->
  656.  
  657. QUICK SUMMARY:
  658.  
  659. Disc Title: Premonitions 2015
  660. Disc Size: 23,212,911,483 bytes
  661. Protection: AACS
  662. BD-Java: Yes
  663. Playlist: 01004.MPLS
  664. Size: 349,716,480 bytes
  665. Length: 0:03:07.166
  666. Total Bitrate: 14.95 Mbps
  667. Video: MPEG-4 AVC Video / 14009 kbps / 1080p / 24 fps / 16:9 / High Profile 4.1
  668. Audio: English / Dolby Digital Audio / 2.0 / 48 kHz / 192 kbps / DN -4dB
  669.  
  670.  
  671. ********************
  672. PLAYLIST: 00003.MPLS
  673. ********************
  674.  
  675. <--- BEGIN FORUMS PASTE --->
  676. [code]
  677.                                                                                                                 Total   Video                                            
  678. Title                                                           Codec   Length  Movie Size      Disc Size       Bitrate Bitrate Main Audio Track                          Secondary Audio Track
  679. -----                                                           ------  ------- --------------  --------------  ------- ------- ------------------                        ---------------------
  680. 00003.MPLS                                                      AVC     0:01:33 223,315,968     23,212,911,483  19.18   18.06   DD AC3 2.0 192Kbps                        
  681. [/code]
  682.  
  683. [code]
  684.  
  685. DISC INFO:
  686.  
  687. Disc Title:     Premonitions 2015
  688. Disc Size:      23,212,911,483 bytes
  689. Protection:     AACS
  690. BD-Java:        Yes
  691. BDInfo:         0.5.8
  692.  
  693. PLAYLIST REPORT:
  694.  
  695. Name:                   00003.MPLS
  696. Length:                 0:01:33.166 (h:m:s.ms)
  697. Size:                   223,315,968 bytes
  698. Total Bitrate:          19.18 Mbps
  699.  
  700. VIDEO:
  701.  
  702. Codec                   Bitrate             Description    
  703. -----                   -------             -----------    
  704. MPEG-4 AVC Video        18060 kbps          1080p / 24 fps / 16:9 / High Profile 4.1
  705.  
  706. AUDIO:
  707.  
  708. Codec                           Language        Bitrate         Description    
  709. -----                           --------        -------         -----------    
  710. Dolby Digital Audio             Italian         192 kbps        2.0 / 48 kHz / 192 kbps / DN -4dB
  711.  
  712. FILES:
  713.  
  714. Name            Time In         Length          Size            Total Bitrate  
  715. ----            -------         ------          ----            -------------  
  716. 00003.M2TS      0:00:00.000     0:01:33.166     223,315,968     19,176          
  717.  
  718. CHAPTERS:
  719.  
  720. Number          Time In         Length          Avg Video Rate  Max 1-Sec Rate  Max 1-Sec Time  Max 5-Sec Rate  Max 5-Sec Time  Max 10Sec Rate  Max 10Sec Time  Avg Frame Size  Max Frame Size  Max Frame Time  
  721. ------          -------         ------          --------------  --------------  --------------  --------------  --------------  --------------  --------------  --------------  --------------  --------------  
  722. 1               0:00:00.000     0:01:33.166     18,060 kbps     48,910 kbps     00:01:02.500    33,516 kbps     00:00:59.666    29,520 kbps     00:00:54.875    94,062 bytes    537,459 bytes   00:01:14.166    
  723.  
  724. STREAM DIAGNOSTICS:
  725.  
  726. File            PID             Type            Codec           Language                Seconds                 Bitrate                 Bytes           Packets        
  727. ----            ---             ----            -----           --------                --------------          --------------          -------------   -----          
  728. 00003.M2TS      4113 (0x1011)   0x1B            AVC                                     93.083                  18,076                  210,322,866     1,144,383      
  729. 00003.M2TS      4352 (0x1100)   0x81            AC3             ita (Italian)           93.083                  192                     2,236,416       14,560          
  730.  
  731. [/code]
  732. <---- END FORUMS PASTE ---->
  733.  
  734. QUICK SUMMARY:
  735.  
  736. Disc Title: Premonitions 2015
  737. Disc Size: 23,212,911,483 bytes
  738. Protection: AACS
  739. BD-Java: Yes
  740. Playlist: 00003.MPLS
  741. Size: 223,315,968 bytes
  742. Length: 0:01:33.166
  743. Total Bitrate: 19.18 Mbps
  744. Video: MPEG-4 AVC Video / 18060 kbps / 1080p / 24 fps / 16:9 / High Profile 4.1
  745. Audio: Italian / Dolby Digital Audio / 2.0 / 48 kHz / 192 kbps / DN -4dB
  746.  
  747.  
  748. ********************
  749. PLAYLIST: 01003.MPLS
  750. ********************
  751.  
  752. <--- BEGIN FORUMS PASTE --->
  753. [code]
  754.                                                                                                                 Total   Video                                            
  755. Title                                                           Codec   Length  Movie Size      Disc Size       Bitrate Bitrate Main Audio Track                          Secondary Audio Track
  756. -----                                                           ------  ------- --------------  --------------  ------- ------- ------------------                        ---------------------
  757. 01003.MPLS                                                      AVC     0:01:33 223,315,968     23,212,911,483  19.18   18.06   DD AC3 2.0 192Kbps                        
  758. [/code]
  759.  
  760. [code]
  761.  
  762. DISC INFO:
  763.  
  764. Disc Title:     Premonitions 2015
  765. Disc Size:      23,212,911,483 bytes
  766. Protection:     AACS
  767. BD-Java:        Yes
  768. BDInfo:         0.5.8
  769.  
  770. PLAYLIST REPORT:
  771.  
  772. Name:                   01003.MPLS
  773. Length:                 0:01:33.166 (h:m:s.ms)
  774. Size:                   223,315,968 bytes
  775. Total Bitrate:          19.18 Mbps
  776.  
  777. VIDEO:
  778.  
  779. Codec                   Bitrate             Description    
  780. -----                   -------             -----------    
  781. MPEG-4 AVC Video        18060 kbps          1080p / 24 fps / 16:9 / High Profile 4.1
  782.  
  783. AUDIO:
  784.  
  785. Codec                           Language        Bitrate         Description    
  786. -----                           --------        -------         -----------    
  787. Dolby Digital Audio             Italian         192 kbps        2.0 / 48 kHz / 192 kbps / DN -4dB
  788.  
  789. FILES:
  790.  
  791. Name            Time In         Length          Size            Total Bitrate  
  792. ----            -------         ------          ----            -------------  
  793. 00003.M2TS      0:00:00.000     0:01:33.166     223,315,968     19,176          
  794.  
  795. CHAPTERS:
  796.  
  797. Number          Time In         Length          Avg Video Rate  Max 1-Sec Rate  Max 1-Sec Time  Max 5-Sec Rate  Max 5-Sec Time  Max 10Sec Rate  Max 10Sec Time  Avg Frame Size  Max Frame Size  Max Frame Time  
  798. ------          -------         ------          --------------  --------------  --------------  --------------  --------------  --------------  --------------  --------------  --------------  --------------  
  799. 1               0:00:00.000     0:01:33.166     18,060 kbps     48,910 kbps     00:01:02.500    33,516 kbps     00:00:59.666    29,520 kbps     00:00:54.875    94,062 bytes    537,459 bytes   00:01:14.166    
  800.  
  801. STREAM DIAGNOSTICS:
  802.  
  803. File            PID             Type            Codec           Language                Seconds                 Bitrate                 Bytes           Packets        
  804. ----            ---             ----            -----           --------                --------------          --------------          -------------   -----          
  805. 00003.M2TS      4113 (0x1011)   0x1B            AVC                                     93.083                  18,076                  210,322,866     1,144,383      
  806. 00003.M2TS      4352 (0x1100)   0x81            AC3             ita (Italian)           93.083                  192                     2,236,416       14,560          
  807.  
  808. [/code]
  809. <---- END FORUMS PASTE ---->
  810.  
  811. QUICK SUMMARY:
  812.  
  813. Disc Title: Premonitions 2015
  814. Disc Size: 23,212,911,483 bytes
  815. Protection: AACS
  816. BD-Java: Yes
  817. Playlist: 01003.MPLS
  818. Size: 223,315,968 bytes
  819. Length: 0:01:33.166
  820. Total Bitrate: 19.18 Mbps
  821. Video: MPEG-4 AVC Video / 18060 kbps / 1080p / 24 fps / 16:9 / High Profile 4.1
  822. Audio: Italian / Dolby Digital Audio / 2.0 / 48 kHz / 192 kbps / DN -4dB
  823.  
  824.  
  825. ********************
  826. PLAYLIST: 00001.MPLS
  827. ********************
  828.  
  829. <--- BEGIN FORUMS PASTE --->
  830. [code]
  831.                                                                                                                 Total   Video                                            
  832. Title                                                           Codec   Length  Movie Size      Disc Size       Bitrate Bitrate Main Audio Track                          Secondary Audio Track
  833. -----                                                           ------  ------- --------------  --------------  ------- ------- ------------------                        ---------------------
  834. 00001.MPLS                                                      AVC     0:00:57 114,542,592     23,212,911,483  16.06   15.08   DD AC3 2.0 192Kbps                        
  835. [/code]
  836.  
  837. [code]
  838.  
  839. DISC INFO:
  840.  
  841. Disc Title:     Premonitions 2015
  842. Disc Size:      23,212,911,483 bytes
  843. Protection:     AACS
  844. BD-Java:        Yes
  845. BDInfo:         0.5.8
  846.  
  847. PLAYLIST REPORT:
  848.  
  849. Name:                   00001.MPLS
  850. Length:                 0:00:57.041 (h:m:s.ms)
  851. Size:                   114,542,592 bytes
  852. Total Bitrate:          16.06 Mbps
  853.  
  854. VIDEO:
  855.  
  856. Codec                   Bitrate             Description    
  857. -----                   -------             -----------    
  858. MPEG-4 AVC Video        15078 kbps          1080p / 24 fps / 16:9 / High Profile 4.1
  859.  
  860. AUDIO:
  861.  
  862. Codec                           Language        Bitrate         Description    
  863. -----                           --------        -------         -----------    
  864. Dolby Digital Audio             Undetermined    192 kbps        2.0 / 48 kHz / 192 kbps / DN -4dB
  865.  
  866. FILES:
  867.  
  868. Name            Time In         Length          Size            Total Bitrate  
  869. ----            -------         ------          ----            -------------  
  870. 00001.M2TS      0:00:00.000     0:00:57.041     114,542,592     16,064          
  871.  
  872. CHAPTERS:
  873.  
  874. Number          Time In         Length          Avg Video Rate  Max 1-Sec Rate  Max 1-Sec Time  Max 5-Sec Rate  Max 5-Sec Time  Max 10Sec Rate  Max 10Sec Time  Avg Frame Size  Max Frame Size  Max Frame Time  
  875. ------          -------         ------          --------------  --------------  --------------  --------------  --------------  --------------  --------------  --------------  --------------  --------------  
  876. 1               0:00:00.000     0:00:57.041     15,078 kbps     23,442 kbps     00:00:40.333    18,783 kbps     00:00:20.625    17,678 kbps     00:00:17.208    78,533 bytes    676,896 bytes   00:00:00.000    
  877.  
  878. STREAM DIAGNOSTICS:
  879.  
  880. File            PID             Type            Codec           Language                Seconds                 Bitrate                 Bytes           Packets        
  881. ----            ---             ----            -----           --------                --------------          --------------          -------------   -----          
  882. 00001.M2TS      4113 (0x1011)   0x1B            AVC                                     56.958                  15,100                  107,511,906     585,079        
  883. 00001.M2TS      4352 (0x1100)   0x81            AC3             und (Undetermined)      56.958                  192                     1,369,344       8,915          
  884.  
  885. [/code]
  886. <---- END FORUMS PASTE ---->
  887.  
  888. QUICK SUMMARY:
  889.  
  890. Disc Title: Premonitions 2015
  891. Disc Size: 23,212,911,483 bytes
  892. Protection: AACS
  893. BD-Java: Yes
  894. Playlist: 00001.MPLS
  895. Size: 114,542,592 bytes
  896. Length: 0:00:57.041
  897. Total Bitrate: 16.06 Mbps
  898. Video: MPEG-4 AVC Video / 15078 kbps / 1080p / 24 fps / 16:9 / High Profile 4.1
  899. Audio: Undetermined / Dolby Digital Audio / 2.0 / 48 kHz / 192 kbps / DN -4dB
  900.  
  901.  
  902. ********************
  903. PLAYLIST: 01001.MPLS
  904. ********************
  905.  
  906. <--- BEGIN FORUMS PASTE --->
  907. [code]
  908.                                                                                                                 Total   Video                                            
  909. Title                                                           Codec   Length  Movie Size      Disc Size       Bitrate Bitrate Main Audio Track                          Secondary Audio Track
  910. -----                                                           ------  ------- --------------  --------------  ------- ------- ------------------                        ---------------------
  911. 01001.MPLS                                                      AVC     0:00:57 114,542,592     23,212,911,483  16.06   15.08   DD AC3 2.0 192Kbps                        
  912. [/code]
  913.  
  914. [code]
  915.  
  916. DISC INFO:
  917.  
  918. Disc Title:     Premonitions 2015
  919. Disc Size:      23,212,911,483 bytes
  920. Protection:     AACS
  921. BD-Java:        Yes
  922. BDInfo:         0.5.8
  923.  
  924. PLAYLIST REPORT:
  925.  
  926. Name:                   01001.MPLS
  927. Length:                 0:00:57.041 (h:m:s.ms)
  928. Size:                   114,542,592 bytes
  929. Total Bitrate:          16.06 Mbps
  930.  
  931. VIDEO:
  932.  
  933. Codec                   Bitrate             Description    
  934. -----                   -------             -----------    
  935. MPEG-4 AVC Video        15078 kbps          1080p / 24 fps / 16:9 / High Profile 4.1
  936.  
  937. AUDIO:
  938.  
  939. Codec                           Language        Bitrate         Description    
  940. -----                           --------        -------         -----------    
  941. Dolby Digital Audio             Undetermined    192 kbps        2.0 / 48 kHz / 192 kbps / DN -4dB
  942.  
  943. FILES:
  944.  
  945. Name            Time In         Length          Size            Total Bitrate  
  946. ----            -------         ------          ----            -------------  
  947. 00001.M2TS      0:00:00.000     0:00:57.041     114,542,592     16,064          
  948.  
  949. CHAPTERS:
  950.  
  951. Number          Time In         Length          Avg Video Rate  Max 1-Sec Rate  Max 1-Sec Time  Max 5-Sec Rate  Max 5-Sec Time  Max 10Sec Rate  Max 10Sec Time  Avg Frame Size  Max Frame Size  Max Frame Time  
  952. ------          -------         ------          --------------  --------------  --------------  --------------  --------------  --------------  --------------  --------------  --------------  --------------  
  953. 1               0:00:00.000     0:00:00.625     21,187 kbps     0 kbps          00:00:00.000    0 kbps          00:00:00.000    0 kbps          00:00:00.000    103,452 bytes   676,896 bytes   00:00:00.000    
  954. 2               0:00:00.625     0:00:56.416     15,011 kbps     23,442 kbps     00:00:40.333    18,783 kbps     00:00:20.625    17,678 kbps     00:00:17.208    78,238 bytes    676,118 bytes   00:00:01.500    
  955.  
  956. STREAM DIAGNOSTICS:
  957.  
  958. File            PID             Type            Codec           Language                Seconds                 Bitrate                 Bytes           Packets        
  959. ----            ---             ----            -----           --------                --------------          --------------          -------------   -----          
  960. 00001.M2TS      4113 (0x1011)   0x1B            AVC                                     56.958                  15,100                  107,511,906     585,079        
  961. 00001.M2TS      4352 (0x1100)   0x81            AC3             und (Undetermined)      56.958                  192                     1,369,344       8,915          
  962.  
  963. [/code]
  964. <---- END FORUMS PASTE ---->
  965.  
  966. QUICK SUMMARY:
  967.  
  968. Disc Title: Premonitions 2015
  969. Disc Size: 23,212,911,483 bytes
  970. Protection: AACS
  971. BD-Java: Yes
  972. Playlist: 01001.MPLS
  973. Size: 114,542,592 bytes
  974. Length: 0:00:57.041
  975. Total Bitrate: 16.06 Mbps
  976. Video: MPEG-4 AVC Video / 15078 kbps / 1080p / 24 fps / 16:9 / High Profile 4.1
  977. Audio: Undetermined / Dolby Digital Audio / 2.0 / 48 kHz / 192 kbps / DN -4dB
  978.  
  979.  
  980. ********************
  981. PLAYLIST: 00000.MPLS
  982. ********************
  983.  
  984. <--- BEGIN FORUMS PASTE --->
  985. [code]
  986.                                                                                                                 Total   Video                                            
  987. Title                                                           Codec   Length  Movie Size      Disc Size       Bitrate Bitrate Main Audio Track                          Secondary Audio Track
  988. -----                                                           ------  ------- --------------  --------------  ------- ------- ------------------                        ---------------------
  989. 00000.MPLS                                                      AVC     0:00:30 22,738,944      23,212,911,483  6.06    4.81    DD AC3 5.1 448Kbps                        
  990. [/code]
  991.  
  992. [code]
  993.  
  994. DISC INFO:
  995.  
  996. Disc Title:     Premonitions 2015
  997. Disc Size:      23,212,911,483 bytes
  998. Protection:     AACS
  999. BD-Java:        Yes
  1000. BDInfo:         0.5.8
  1001.  
  1002. PLAYLIST REPORT:
  1003.  
  1004. Name:                   00000.MPLS
  1005. Length:                 0:00:30.000 (h:m:s.ms)
  1006. Size:                   22,738,944 bytes
  1007. Total Bitrate:          6.06 Mbps
  1008.  
  1009. VIDEO:
  1010.  
  1011. Codec                   Bitrate             Description    
  1012. -----                   -------             -----------    
  1013. MPEG-4 AVC Video        4806 kbps           1080p / 24 fps / 16:9 / High Profile 4.1
  1014.  
  1015. AUDIO:
  1016.  
  1017. Codec                           Language        Bitrate         Description    
  1018. -----                           --------        -------         -----------    
  1019. Dolby Digital Audio             Italian         448 kbps        5.1 / 48 kHz / 448 kbps / DN -4dB
  1020. Dolby Digital Audio             English         448 kbps        5.1 / 48 kHz / 448 kbps / DN -4dB
  1021.  
  1022. SUBTITLES:
  1023.  
  1024. Codec                           Language        Bitrate         Description    
  1025. -----                           --------        -------         -----------    
  1026. Presentation Graphics           Italian         0.006 kbps                      
  1027.  
  1028. FILES:
  1029.  
  1030. Name            Time In         Length          Size            Total Bitrate  
  1031. ----            -------         ------          ----            -------------  
  1032. 00000.M2TS      0:00:00.000     0:00:30.000     22,738,944      6,064          
  1033.  
  1034. CHAPTERS:
  1035.  
  1036. Number          Time In         Length          Avg Video Rate  Max 1-Sec Rate  Max 1-Sec Time  Max 5-Sec Rate  Max 5-Sec Time  Max 10Sec Rate  Max 10Sec Time  Avg Frame Size  Max Frame Size  Max Frame Time  
  1037. ------          -------         ------          --------------  --------------  --------------  --------------  --------------  --------------  --------------  --------------  --------------  --------------  
  1038. 1               0:00:00.000     0:00:30.000     4,806 kbps      17,108 kbps     00:00:03.541    12,612 kbps     00:00:02.499    9,721 kbps      00:00:01.041    25,033 bytes    191,272 bytes   00:00:03.583    
  1039.  
  1040. STREAM DIAGNOSTICS:
  1041.  
  1042. File            PID             Type            Codec           Language                Seconds                 Bitrate                 Bytes           Packets        
  1043. ----            ---             ----            -----           --------                --------------          --------------          -------------   -----          
  1044. 00000.M2TS      4113 (0x1011)   0x1B            AVC                                     29.875                  4,826                   18,023,721      98,300          
  1045. 00000.M2TS      4352 (0x1100)   0x81            AC3             ita (Italian)           29.875                  450                     1,680,896       9,380          
  1046. 00000.M2TS      4353 (0x1101)   0x81            AC3             eng (English)           29.875                  450                     1,680,896       9,380          
  1047. 00000.M2TS      4608 (0x1200)   0x90            PGS             ita (Italian)           29.875                  0                       22              1              
  1048.  
  1049. [/code]
  1050. <---- END FORUMS PASTE ---->
  1051.  
  1052. QUICK SUMMARY:
  1053.  
  1054. Disc Title: Premonitions 2015
  1055. Disc Size: 23,212,911,483 bytes
  1056. Protection: AACS
  1057. BD-Java: Yes
  1058. Playlist: 00000.MPLS
  1059. Size: 22,738,944 bytes
  1060. Length: 0:00:30.000
  1061. Total Bitrate: 6.06 Mbps
  1062. Video: MPEG-4 AVC Video / 4806 kbps / 1080p / 24 fps / 16:9 / High Profile 4.1
  1063. Audio: Italian / Dolby Digital Audio / 5.1 / 48 kHz / 448 kbps / DN -4dB
  1064. Audio: English / Dolby Digital Audio / 5.1 / 48 kHz / 448 kbps / DN -4dB
  1065. Subtitle: Italian / 0.006 kbps
  1066.  
  1067.  
  1068. ********************
  1069. PLAYLIST: 01000.MPLS
  1070. ********************
  1071.  
  1072. <--- BEGIN FORUMS PASTE --->
  1073. [code]
  1074.                                                                                                                 Total   Video                                            
  1075. Title                                                           Codec   Length  Movie Size      Disc Size       Bitrate Bitrate Main Audio Track                          Secondary Audio Track
  1076. -----                                                           ------  ------- --------------  --------------  ------- ------- ------------------                        ---------------------
  1077. 01000.MPLS                                                      AVC     0:00:30 22,738,944      23,212,911,483  6.06    4.81    DD AC3 5.1 448Kbps                        
  1078. [/code]
  1079.  
  1080. [code]
  1081.  
  1082. DISC INFO:
  1083.  
  1084. Disc Title:     Premonitions 2015
  1085. Disc Size:      23,212,911,483 bytes
  1086. Protection:     AACS
  1087. BD-Java:        Yes
  1088. BDInfo:         0.5.8
  1089.  
  1090. PLAYLIST REPORT:
  1091.  
  1092. Name:                   01000.MPLS
  1093. Length:                 0:00:30.000 (h:m:s.ms)
  1094. Size:                   22,738,944 bytes
  1095. Total Bitrate:          6.06 Mbps
  1096.  
  1097. VIDEO:
  1098.  
  1099. Codec                   Bitrate             Description    
  1100. -----                   -------             -----------    
  1101. MPEG-4 AVC Video        4806 kbps           1080p / 24 fps / 16:9 / High Profile 4.1
  1102.  
  1103. AUDIO:
  1104.  
  1105. Codec                           Language        Bitrate         Description    
  1106. -----                           --------        -------         -----------    
  1107. Dolby Digital Audio             Italian         448 kbps        5.1 / 48 kHz / 448 kbps / DN -4dB
  1108. Dolby Digital Audio             English         448 kbps        5.1 / 48 kHz / 448 kbps / DN -4dB
  1109.  
  1110. SUBTITLES:
  1111.  
  1112. Codec                           Language        Bitrate         Description    
  1113. -----                           --------        -------         -----------    
  1114. Presentation Graphics           Italian         0.006 kbps                      
  1115.  
  1116. FILES:
  1117.  
  1118. Name            Time In         Length          Size            Total Bitrate  
  1119. ----            -------         ------          ----            -------------  
  1120. 00000.M2TS      0:00:00.000     0:00:30.000     22,738,944      6,064          
  1121.  
  1122. CHAPTERS:
  1123.  
  1124. Number          Time In         Length          Avg Video Rate  Max 1-Sec Rate  Max 1-Sec Time  Max 5-Sec Rate  Max 5-Sec Time  Max 10Sec Rate  Max 10Sec Time  Avg Frame Size  Max Frame Size  Max Frame Time  
  1125. ------          -------         ------          --------------  --------------  --------------  --------------  --------------  --------------  --------------  --------------  --------------  --------------  
  1126. 1               0:00:00.000     0:00:30.000     4,806 kbps      17,108 kbps     00:00:03.541    12,612 kbps     00:00:02.499    9,721 kbps      00:00:01.041    25,033 bytes    191,272 bytes   00:00:03.583    
  1127.  
  1128. STREAM DIAGNOSTICS:
  1129.  
  1130. File            PID             Type            Codec           Language                Seconds                 Bitrate                 Bytes           Packets        
  1131. ----            ---             ----            -----           --------                --------------          --------------          -------------   -----          
  1132. 00000.M2TS      4113 (0x1011)   0x1B            AVC                                     29.875                  4,826                   18,023,721      98,300          
  1133. 00000.M2TS      4352 (0x1100)   0x81            AC3             ita (Italian)           29.875                  450                     1,680,896       9,380          
  1134. 00000.M2TS      4353 (0x1101)   0x81            AC3             eng (English)           29.875                  450                     1,680,896       9,380          
  1135. 00000.M2TS      4608 (0x1200)   0x90            PGS             ita (Italian)           29.875                  0                       22              1              
  1136.  
  1137. [/code]
  1138. <---- END FORUMS PASTE ---->
  1139.  
  1140. QUICK SUMMARY:
  1141.  
  1142. Disc Title: Premonitions 2015
  1143. Disc Size: 23,212,911,483 bytes
  1144. Protection: AACS
  1145. BD-Java: Yes
  1146. Playlist: 01000.MPLS
  1147. Size: 22,738,944 bytes
  1148. Length: 0:00:30.000
  1149. Total Bitrate: 6.06 Mbps
  1150. Video: MPEG-4 AVC Video / 4806 kbps / 1080p / 24 fps / 16:9 / High Profile 4.1
  1151. Audio: Italian / Dolby Digital Audio / 5.1 / 48 kHz / 448 kbps / DN -4dB
  1152. Audio: English / Dolby Digital Audio / 5.1 / 48 kHz / 448 kbps / DN -4dB
  1153. Subtitle: Italian / 0.006 kbps
RAW Paste Data
We use cookies for various purposes including analytics. By continuing to use Pastebin, you agree to our use of cookies as described in the Cookies Policy. OK, I Understand
Not a member of Pastebin yet?
Sign Up, it unlocks many cool features!
 
Top