SHARE
TWEET

Knightfall: Season 2 1080p WEB-RIP

dirtyharrys Apr 30th, 2019 100 Never
Not a member of Pastebin yet? Sign Up, it unlocks many cool features!
  1. General
  2. Unique ID                   : 58224973200418378037371124777694694592 (0x2BCDB8D10BADB1B3C7B83F72298A8CC0)
  3. Complete name               : E:\Knightfall.S02\KS02E01.mkv
  4. Format                      : Matroska
  5. Format version              : Version 4
  6. File size                   : 1 020 MiB
  7. Duration                    : 45 min 20 s
  8. Overall bit rate            : 3 146 kb/s
  9. Movie name                  : Knightfall S02E01 / Knightfall: Season Two
  10. Description                 : Episode 01: "Gods Executioners"
  11. Encoded date                : UTC 2019-04-23 07:25:36
  12. Writing application         : mkvmerge v30.1.0 ('Forever And More') 32-bit
  13. Writing library             : libebml v1.3.6 + libmatroska v1.4.9
  14. Copyright                   : Movies HDs 2018
  15. ARTIST                      : HarshLearner
  16.  
  17. Video
  18. ID                          : 1
  19. Format                      : HEVC
  20. Format/Info                 : High Efficiency Video Coding
  21. Format profile              : Main 10@L4@Main
  22. Codec ID                    : V_MPEGH/ISO/HEVC
  23. Duration                    : 45 min 20 s
  24. Bit rate                    : 2 920 kb/s
  25. Width                       : 1 920 pixels
  26. Height                      : 1 080 pixels
  27. Display aspect ratio        : 16:9
  28. Frame rate mode             : Constant
  29. Frame rate                  : 23.976 (24000/1001) FPS
  30. Color space                 : YUV
  31. Chroma subsampling          : 4:2:0
  32. Bit depth                   : 10 bits
  33. Bits/(Pixel*Frame)          : 0.059
  34. Stream size                 : 947 MiB (93%)
  35. Title                       : S02E01: Gods Executioners
  36. Writing library             : x265 2.9+8-27d8424c799d:[Windows][MSVC 1915][64 bit] 10bit
  37. Encoding settings           : cpuid=1111039 / frame-threads=3 / numa-pools=8 / wpp / no-pmode / no-pme / no-psnr / no-ssim / log-level=2 / input-csp=1 / input-res=1920x1080 / interlace=0 / total-frames=0 / level-idc=0 / high-tier=1 / uhd-bd=0 / ref=4 / no-allow-non-conformance / no-repeat-headers / annexb / no-aud / no-hrd / info / hash=0 / no-temporal-layers / open-gop / min-keyint=23 / keyint=250 / gop-lookahead=0 / bframes=8 / b-adapt=2 / b-pyramid / bframe-bias=0 / rc-lookahead=100 / lookahead-slices=4 / scenecut=40 / radl=0 / no-intra-refresh / ctu=64 / min-cu-size=8 / no-rect / no-amp / max-tu-size=32 / tu-inter-depth=1 / tu-intra-depth=1 / limit-tu=0 / rdoq-level=2 / dynamic-rd=0.00 / no-ssim-rd / signhide / no-tskip / nr-intra=0 / nr-inter=0 / no-constrained-intra / no-strong-intra-smoothing / max-merge=3 / limit-refs=3 / limit-modes / me=3 / subme=5 / merange=57 / temporal-mvp / weightp / no-weightb / no-analyze-src-pics / deblock=0:0 / sao / no-sao-non-deblock / rd=4 / no-early-skip / rskip / no-fast-intra / no-tskip-fast / no-cu-lossless / no-b-intra / no-splitrd-skip / rdpenalty=0 / psy-rd=1.30 / psy-rdoq=2.00 / no-rd-refine / no-lossless / cbqpoffs=0 / crqpoffs=0 / rc=crf / crf=20.0 / qcomp=0.60 / qpstep=4 / stats-write=0 / stats-read=0 / ipratio=1.40 / pbratio=1.30 / aq-mode=2 / aq-strength=1.10 / cutree / zone-count=0 / no-strict-cbr / qg-size=32 / no-rc-grain / qpmax=69 / qpmin=0 / no-const-vbv / sar=1 / overscan=0 / videoformat=5 / range=0 / colorprim=2 / transfer=2 / colormatrix=2 / chromaloc=0 / display-window=0 / max-cll=0,0 / min-luma=0 / max-luma=1023 / log2-max-poc-lsb=8 / vui-timing-info / vui-hrd-info / slices=1 / no-opt-qp-pps / no-opt-ref-list-length-pps / no-multi-pass-opt-rps / scenecut-bias=0.05 / no-opt-cu-delta-qp / no-aq-motion / no-hdr / no-hdr-opt / no-dhdr10-opt / no-idr-recovery-sei / analysis-reuse-level=5 / scale-factor=0 / refine-intra=0 / refine-inter=0 / refine-mv=0 / no-limit-sao / ctu-info=0 / no-lowpass-dct / refine-mv-type=0 / copy-pic=1 / max-ausize-factor=1.0 / no-dynamic-refine / no-single-sei
  38. Default                     : Yes
  39. Forced                      : No
  40.  
  41. Audio
  42. ID                          : 2
  43. Format                      : E-AC-3
  44. Format/Info                 : Enhanced AC-3
  45. Commercial name             : Dolby Digital Plus
  46. Codec ID                    : A_EAC3
  47. Duration                    : 45 min 20 s
  48. Bit rate mode               : Constant
  49. Bit rate                    : 224 kb/s
  50. Channel(s)                  : 2 channels
  51. Channel layout              : L R
  52. Sampling rate               : 48.0 kHz
  53. Frame rate                  : 31.250 FPS (1536 SPF)
  54. Compression mode            : Lossy
  55. Stream size                 : 72.6 MiB (7%)
  56. Language                    : English
  57. Service kind                : Complete Main
  58. Default                     : Yes
  59. Forced                      : No
  60.  
  61. Text #1
  62. ID                          : 3
  63. Format                      : UTF-8
  64. Codec ID                    : S_TEXT/UTF8
  65. Codec ID/Info               : UTF-8 Plain Text
  66. Duration                    : 45 min 7 s
  67. Bit rate                    : 65 b/s
  68. Count of elements           : 823
  69. Stream size                 : 21.5 KiB (0%)
  70. Language                    : English
  71. Default                     : No
  72. Forced                      : No
  73.  
  74. Text #2
  75. ID                          : 4
  76. Format                      : UTF-8
  77. Codec ID                    : S_TEXT/UTF8
  78. Codec ID/Info               : UTF-8 Plain Text
  79. Duration                    : 44 min 39 s
  80. Bit rate                    : 49 b/s
  81. Count of elements           : 428
  82. Stream size                 : 16.2 KiB (0%)
  83. Language                    : Spanish
  84. Default                     : Yes
  85. Forced                      : Yes
RAW Paste Data
We use cookies for various purposes including analytics. By continuing to use Pastebin, you agree to our use of cookies as described in the Cookies Policy. OK, I Understand
 
Top