Interfilm

Untitled

Jun 12th, 2014
263
Never
Not a member of Pastebin yet? Sign Up, it unlocks many cool features!
  1. General
  2. Enemy.2013.Blu.Ray.1080p.CINEMANIA.mkv
  3. Format : Matroska
  4. Format version : Version 4 / Version 2
  5. File size : 8.29 GiB
  6. Duration : 1h 30mn
  7. Overall bit rate : 13.1 Mbps
  8. Movie name : Release Group CINEMANIA
  9. Encoded date : UTC 2014-06-12 15:13:04
  10. Writing application : mkvmerge v7.0.0 ('Where We Going') 64bit built on Jun 9 2014 15:16:27
  11. Writing library : libebml v1.3.0 + libmatroska v1.4.1
  12.  
  13. Video
  14. ID : 1
  15. Format : AVC
  16. Format/Info : Advanced Video Codec
  17. Format profile : High@L4.1
  18. Format settings, CABAC : Yes
  19. Format settings, ReFrames : 5 frames
  20. Codec ID : V_MPEG4/ISO/AVC
  21. Duration : 1h 30mn
  22. Bit rate : 11.0 Mbps
  23. Width : 1 916 pixels
  24. Height : 800 pixels
  25. Display aspect ratio : 2.40:1
  26. Frame rate mode : Constant
  27. Frame rate : 23.976 fps
  28. Color space : YUV
  29. Chroma subsampling : 4:2:0
  30. Bit depth : 8 bits
  31. Scan type : Progressive
  32. Bits/(Pixel*Frame) : 0.299
  33. Stream size : 6.80 GiB (82%)
  34. Title : Release Group CINEMANIA
  35. Writing library : x264 core 138 r2356 a1d3d17
  36. Encoding settings : cabac=1 / ref=5 / deblock=1:-3:-3 / analyse=0x3:0x113 / me=umh / subme=10 / psy=1 / psy_rd=1.00:0.05 / mixed_ref=1 / me_range=32 / chroma_me=1 / trellis=2 / 8x8dct=1 / cqm=0 / deadzone=21,11 / fast_pskip=0 / chroma_qp_offset=-2 / threads=18 / lookahead_threads=1 / sliced_threads=0 / nr=0 / decimate=1 / interlaced=0 / bluray_compat=0 / constrained_intra=0 / bframes=5 / b_pyramid=2 / b_adapt=2 / b_bias=0 / direct=3 / weightb=1 / open_gop=0 / weightp=2 / keyint=250 / keyint_min=23 / scenecut=40 / intra_refresh=0 / rc=2pass / mbtree=0 / bitrate=10973 / ratetol=1.0 / qcomp=0.70 / qpmin=0 / qpmax=69 / qpstep=4 / cplxblur=20.0 / qblur=0.5 / ip_ratio=1.40 / pb_ratio=1.30 / aq=2:0.90
  37. Language : English
  38. Default : Yes
  39. Forced : No
  40.  
  41. Audio #1
  42. ID : 2
  43. Format : AC-3
  44. Format/Info : Audio Coding 3
  45. Mode extension : CM (complete main)
  46. Format settings, Endianness : Big
  47. Codec ID : A_AC3
  48. Duration : 1h 30mn
  49. Bit rate mode : Constant
  50. Bit rate : 384 Kbps
  51. Channel(s) : 6 channels
  52. Channel positions : Front: L C R, Side: L R, LFE
  53. Sampling rate : 48.0 KHz
  54. Bit depth : 16 bits
  55. Compression mode : Lossy
  56. Stream size : 250 MiB (3%)
  57. Title : qwerty & R.A.I.M.
  58. Language : Russian
  59. Default : Yes
  60. Forced : Yes
  61.  
  62. Audio #2
  63. ID : 3
  64. Format : AC-3
  65. Format/Info : Audio Coding 3
  66. Mode extension : CM (complete main)
  67. Format settings, Endianness : Big
  68. Codec ID : A_AC3
  69. Duration : 1h 30mn
  70. Bit rate mode : Constant
  71. Bit rate : 192 Kbps
  72. Channel(s) : 2 channels
  73. Channel positions : Front: L R
  74. Sampling rate : 48.0 KHz
  75. Bit depth : 16 bits
  76. Compression mode : Lossy
  77. Stream size : 125 MiB (1%)
  78. Title : ХиХиДок
  79. Language : Russian
  80. Default : No
  81. Forced : No
  82.  
  83. Audio #3
  84. ID : 4
  85. Format : DTS
  86. Format/Info : Digital Theater Systems
  87. Mode : 16
  88. Format settings, Endianness : Big
  89. Codec ID : A_DTS
  90. Duration : 1h 30mn
  91. Bit rate mode : Constant
  92. Bit rate : 1 509 Kbps
  93. Channel(s) : 6 channels
  94. Channel positions : Front: L C R, Side: L R, LFE
  95. Sampling rate : 48.0 KHz
  96. Bit depth : 24 bits
  97. Compression mode : Lossy
  98. Stream size : 981 MiB (12%)
  99. Language : English
  100. Default : No
  101. Forced : No
  102.  
  103. Text #1
  104. ID : 5
  105. Format : UTF-8
  106. Codec ID : S_TEXT/UTF8
  107. Codec ID/Info : UTF-8 Plain Text
  108. Title : notabenoid
  109. Language : Russian
  110. Default : No
  111. Forced : No
  112.  
  113. Text #2
  114. ID : 6
  115. Format : UTF-8
  116. Codec ID : S_TEXT/UTF8
  117. Codec ID/Info : UTF-8 Plain Text
  118. Language : English
  119. Default : No
  120. Forced : No
  121.  
  122. Menu
  123. 00:00:00.000 : en:00:00:00.000
  124. 00:04:57.589 : en:00:04:57.589
  125. 00:09:20.393 : en:00:09:20.393
  126. 00:15:45.778 : en:00:15:45.778
  127. 00:26:24.708 : en:00:26:24.708
  128. 00:30:58.565 : en:00:30:58.565
  129. 00:35:43.600 : en:00:35:43.600
  130. 00:42:11.779 : en:00:42:11.779
  131. 00:48:55.683 : en:00:48:55.683
  132. 00:52:51.043 : en:00:52:51.043
  133. 00:55:15.979 : en:00:55:15.979
  134. 00:59:19.639 : en:00:59:19.639
  135. 01:06:33.072 : en:01:06:33.072
  136. 01:10:08.579 : en:01:10:08.579
  137. 01:15:10.881 : en:01:15:10.881
  138. 01:23:17.326 : en:01:23:17.326
RAW Paste Data