SHARE
TWEET

Untitled

-VS- Oct 20th, 2019 101 Never
Not a member of Pastebin yet? Sign Up, it unlocks many cool features!
  1. General
  2. Unique ID                   : 117776042112886638699798571940291530806 (0x589AD7331CC0C0ECB01312BCF377D036)
  3. Complete name               : C:\Scooby.Doo.Camp.Scare.2010.Blu-ray.1080p.REMUX.VC-1.DD5.1-playBD\Scooby.Doo.Camp.Scare.2010.Blu-ray.1080p.REMUX.VC-1.DD5.1-playBD.mkv
  4. Format                      : Matroska
  5. Format version              : Version 4
  6. File size                   : 9.62 GiB
  7. Duration                    : 1 h 12 min
  8. Overall bit rate            : 19.0 Mb/s
  9. Encoded date                : UTC 2018-05-30 18:32:00
  10. Writing application         : mkvmerge v22.0.0 ('At The End Of The World') 64-bit
  11. Writing library             : libebml v1.3.5 + libmatroska v1.4.8
  12.  
  13. Video
  14. ID                          : 1
  15. Format                      : VC-1
  16. Format profile              : Advanced@L3
  17. Codec ID                    : V_MS/VFW/FOURCC / WVC1
  18. Codec ID/Hint               : Microsoft
  19. Duration                    : 1 h 12 min
  20. Bit rate                    : 18.3 Mb/s
  21. Width                       : 1 920 pixels
  22. Height                      : 1 080 pixels
  23. Display aspect ratio        : 16:9
  24. Frame rate mode             : Constant
  25. Frame rate                  : 23.976 (24000/1001) FPS
  26. Color space                 : YUV
  27. Chroma subsampling          : 4:2:0
  28. Bit depth                   : 8 bits
  29. Scan type                   : Progressive
  30. Compression mode            : Lossy
  31. Bits/(Pixel*Frame)          : 0.369
  32. Stream size                 : 9.29 GiB (97%)
  33. Default                     : Yes
  34. Forced                      : No
  35.  
  36. Audio
  37. ID                          : 2
  38. Format                      : AC-3
  39. Format/Info                 : Audio Coding 3
  40. Commercial name             : Dolby Digital
  41. Codec ID                    : A_AC3
  42. Duration                    : 1 h 12 min
  43. Bit rate mode               : Constant
  44. Bit rate                    : 640 kb/s
  45. Channel(s)                  : 6 channels
  46. Channel layout              : L R C LFE Ls Rs
  47. Sampling rate               : 48.0 kHz
  48. Frame rate                  : 31.250 FPS (1536 SPF)
  49. Bit depth                   : 16 bits
  50. Compression mode            : Lossy
  51. Stream size                 : 332 MiB (3%)
  52. Language                    : English
  53. Service kind                : Complete Main
  54. Default                     : Yes
  55. Forced                      : No
  56.  
  57. Text
  58. ID                          : 3
  59. Format                      : UTF-8
  60. Codec ID                    : S_TEXT/UTF8
  61. Codec ID/Info               : UTF-8 Plain Text
  62. Duration                    : 1 h 7 min
  63. Bit rate                    : 55 b/s
  64. Count of elements           : 890
  65. Stream size                 : 27.4 KiB (0%)
  66. Language                    : English
  67. Default                     : Yes
  68. Forced                      : No
RAW Paste Data
We use cookies for various purposes including analytics. By continuing to use Pastebin, you agree to our use of cookies as described in the Cookies Policy. OK, I Understand
 
Top