trds

Untitled

Nov 28th, 2021
776
Never
Not a member of Pastebin yet? Sign Up, it unlocks many cool features!
  1. General
  2. Unique ID                                : 243437815054187398773862919514105577075 (0xB7246AF260F564FEFA321A43BCB7FE73)
  3. Complete name                            : D:\Encodes\De.Oost.2020.720p.BluRay.DD5.1.x264-playHD\De.Oost.2020.720p.BluRay.DD5.1.x264-playHD.mkv
  4. Format                                   : Matroska
  5. Format version                           : Version 4
  6. File size                                : 9.60 GiB
  7. Duration                                 : 2 h 21 min
  8. Overall bit rate                         : 9 738 kb/s
  9. Encoded date                             : UTC 2021-11-28 17:01:00
  10. Writing application                      : mkvmerge v56.1.0 ('My Friend') 64-bit
  11. Writing library                          : libebml v1.4.2 + libmatroska v1.6.4
  12.  
  13. Video
  14. ID                                       : 1
  15. Format                                   : AVC
  16. Format/Info                              : Advanced Video Codec
  17. Format profile                           : High@L4.1
  18. Format settings                          : CABAC / 9 Ref Frames
  19. Format settings, CABAC                   : Yes
  20. Format settings, Reference frames        : 9 frames
  21. Codec ID                                 : V_MPEG4/ISO/AVC
  22. Duration                                 : 2 h 21 min
  23. Bit rate                                 : 9 095 kb/s
  24. Width                                    : 1 280 pixels
  25. Height                                   : 694 pixels
  26. Display aspect ratio                     : 1.85:1
  27. Frame rate mode                          : Constant
  28. Frame rate                               : 23.976 (24000/1001) FPS
  29. Color space                              : YUV
  30. Chroma subsampling                       : 4:2:0
  31. Bit depth                                : 8 bits
  32. Scan type                                : Progressive
  33. Bits/(Pixel*Frame)                       : 0.427
  34. Stream size                              : 8.97 GiB (93%)
  35. Writing library                          : x264 core 161 r3048+53M t_mod ~~~~~~~ Just us ~ JigSaw & droops16 ~
  36. Encoding settings                        : cabac=1 / ref=9 / deblock=1:-3:-3 / analyse=0x3:0x133 / me=umh / subme=10 / psy=1 / fade_compensate=0.00 / psy_rd=1.00:0.00 / mixed_ref=1 / me_range=32 / chroma_me=1 / trellis=2 / 8x8dct=1 / cqm=0 / deadzone=21,11 / fast_pskip=0 / chroma_qp_offset=-2 / threads=12 / lookahead_threads=2 / sliced_threads=0 / nr=0 / decimate=0 / interlaced=0 / bluray_compat=0 / constrained_intra=0 / fgo=0 / bframes=9 / b_pyramid=2 / b_adapt=2 / b_bias=0 / direct=3 / weightb=1 / open_gop=0 / weightp=2 / keyint=250 / keyint_min=23 / scenecut=40 / intra_refresh=0 / rc=crf / mbtree=0 / crf=15.7000 / qcomp=0.60 / qpmin=0:0:0 / qpmax=69:69:69 / qpstep=4 / ip_ratio=1.30 / pb_ratio=1.20 / aq=3:0.85 / aq-sensitivity=10.00 / aq-factor=1.00:1.00:1.00 / aq2=0 / aq3=0
  37. Language                                 : English
  38. Default                                  : Yes
  39. Forced                                   : No
  40.  
  41. Audio
  42. ID                                       : 2
  43. Format                                   : AC-3
  44. Format/Info                              : Audio Coding 3
  45. Commercial name                          : Dolby Digital
  46. Codec ID                                 : A_AC3
  47. Duration                                 : 2 h 21 min
  48. Bit rate mode                            : Constant
  49. Bit rate                                 : 640 kb/s
  50. Channel(s)                               : 6 channels
  51. Channel layout                           : L R C LFE Ls Rs
  52. Sampling rate                            : 48.0 kHz
  53. Frame rate                               : 31.250 FPS (1536 SPF)
  54. Compression mode                         : Lossy
  55. Stream size                              : 646 MiB (7%)
  56. Language                                 : Dutch
  57. Service kind                             : Complete Main
  58. Default                                  : Yes
  59. Forced                                   : No
  60.  
  61. Text #1
  62. ID                                       : 3
  63. Format                                   : UTF-8
  64. Codec ID                                 : S_TEXT/UTF8
  65. Codec ID/Info                            : UTF-8 Plain Text
  66. Duration                                 : 2 h 13 min
  67. Bit rate                                 : 47 b/s
  68. Count of elements                        : 1264
  69. Stream size                              : 46.4 KiB (0%)
  70. Language                                 : Dutch
  71. Default                                  : No
  72. Forced                                   : No
  73.  
  74. Text #2
  75. ID                                       : 4
  76. Format                                   : UTF-8
  77. Codec ID                                 : S_TEXT/UTF8
  78. Codec ID/Info                            : UTF-8 Plain Text
  79. Duration                                 : 2 h 16 min
  80. Bit rate                                 : 39 b/s
  81. Count of elements                        : 1251
  82. Stream size                              : 40.0 KiB (0%)
  83. Language                                 : English
  84. Default                                  : No
  85. Forced                                   : No
  86.  
  87. Text #3
  88. ID                                       : 5
  89. Format                                   : UTF-8
  90. Codec ID                                 : S_TEXT/UTF8
  91. Codec ID/Info                            : UTF-8 Plain Text
  92. Duration                                 : 2 h 16 min
  93. Bit rate                                 : 41 b/s
  94. Count of elements                        : 1255
  95. Stream size                              : 41.7 KiB (0%)
  96. Language                                 : Romanian
  97. Default                                  : No
  98. Forced                                   : No
  99.  
  100. Menu
  101. 00:00:00.000                             : Chapter 01
  102. 00:08:17.789                             : Chapter 02
  103. 00:15:37.937                             : Chapter 03
  104. 00:24:40.479                             : Chapter 04
  105. 00:34:05.043                             : Chapter 05
  106. 00:42:06.524                             : Chapter 06
  107. 00:51:34.091                             : Chapter 07
  108. 00:59:38.575                             : Chapter 08
  109. 01:09:33.169                             : Chapter 09
  110. 01:19:33.769                             : Chapter 10
  111. 01:30:24.419                             : Chapter 11
  112. 01:38:35.910                             : Chapter 12
  113. 01:48:33.507                             : Chapter 13
  114. 01:55:42.936                             : Chapter 14
  115. 02:05:02.495                             : Chapter 15
  116. 02:15:38.339                             : Chapter 16
  117.  
  118.  
RAW Paste Data