SHARE
TWEET

Untitled

a guest Oct 18th, 2019 98 Never
Not a member of Pastebin yet? Sign Up, it unlocks many cool features!
  1. General
  2. Unique ID                                : 187182692592327599750338809826738243315 (0x8CD213451F169EA66507E5707F7D06F3)
  3. Complete name                            : Kill.Chain.2019.1080p.AMZN.WEB-DL.DDP5.1.H.264-NTG
  4. Format                                   : Matroska
  5. Format version                           : Version 4
  6. File size                                : 5.54 GiB
  7. Duration                                 : 1 h 31 min
  8. Overall bit rate                         : 8 680 kb/s
  9. Encoded date                             : UTC 2019-10-18 00:29:25
  10. Writing application                      : mkvmerge v21.0.0 ('Tardigrades Will Inherit The Earth') 64-bit
  11. Writing library                          : libebml v1.3.5 + libmatroska v1.4.8
  12.  
  13. Video
  14. ID                                       : 1
  15. Format                                   : AVC
  16. Format/Info                              : Advanced Video Codec
  17. Format profile                           : High@L4
  18. Format settings                          : CABAC / 4 Ref Frames
  19. Format settings, CABAC                   : Yes
  20. Format settings, Reference frames        : 4 frames
  21. Codec ID                                 : V_MPEG4/ISO/AVC
  22. Duration                                 : 1 h 31 min
  23. Bit rate mode                            : Constant
  24. Bit rate                                 : 8 038 kb/s
  25. Nominal bit rate                         : 10 000 kb/s
  26. Width                                    : 1 920 pixels
  27. Height                                   : 1 040 pixels
  28. Display aspect ratio                     : 1.85:1
  29. Frame rate mode                          : Constant
  30. Frame rate                               : 23.976 (24000/1001) FPS
  31. Color space                              : YUV
  32. Chroma subsampling                       : 4:2:0
  33. Bit depth                                : 8 bits
  34. Scan type                                : Progressive
  35. Bits/(Pixel*Frame)                       : 0.168
  36. Stream size                              : 5.13 GiB (93%)
  37. Default                                  : Yes
  38. Forced                                   : No
  39. Color range                              : Limited
  40. Color primaries                          : BT.709
  41. Transfer characteristics                 : BT.709
  42. Matrix coefficients                      : BT.709
  43.  
  44. Audio
  45. ID                                       : 2
  46. Format                                   : E-AC-3
  47. Format/Info                              : Enhanced AC-3
  48. Commercial name                          : Dolby Digital Plus
  49. Codec ID                                 : A_EAC3
  50. Duration                                 : 1 h 31 min
  51. Bit rate mode                            : Constant
  52. Bit rate                                 : 640 kb/s
  53. Channel(s)                               : 6 channels
  54. Channel layout                           : L R C LFE Ls Rs
  55. Sampling rate                            : 48.0 kHz
  56. Frame rate                               : 31.250 FPS (1536 SPF)
  57. Compression mode                         : Lossy
  58. Stream size                              : 418 MiB (7%)
  59. Language                                 : English
  60. Service kind                             : Complete Main
  61. Default                                  : Yes
  62. Forced                                   : No
  63.  
  64. Text #1
  65. ID                                       : 3
  66. Format                                   : UTF-8
  67. Codec ID                                 : S_TEXT/UTF8
  68. Codec ID/Info                            : UTF-8 Plain Text
  69. Duration                                 : 1 h 22 min
  70. Bit rate                                 : 43 b/s
  71. Count of elements                        : 899
  72. Stream size                              : 26.3 KiB (0%)
  73. Title                                    : UK
  74. Language                                 : English
  75. Default                                  : No
  76. Forced                                   : No
  77.  
  78. Text #2
  79. ID                                       : 4
  80. Format                                   : UTF-8
  81. Codec ID                                 : S_TEXT/UTF8
  82. Codec ID/Info                            : UTF-8 Plain Text
  83. Duration                                 : 1 h 26 min
  84. Bit rate                                 : 43 b/s
  85. Count of elements                        : 983
  86. Stream size                              : 27.4 KiB (0%)
  87. Title                                    : UK SDH
  88. Language                                 : English
  89. Default                                  : No
  90. Forced                                   : No
  91.  
  92. Text #3
  93. ID                                       : 5
  94. Format                                   : UTF-8
  95. Codec ID                                 : S_TEXT/UTF8
  96. Codec ID/Info                            : UTF-8 Plain Text
  97. Duration                                 : 1 h 26 min
  98. Bit rate                                 : 43 b/s
  99. Count of elements                        : 983
  100. Stream size                              : 27.4 KiB (0%)
  101. Title                                    : US SDH
  102. Language                                 : English
  103. Default                                  : No
  104. Forced                                   : No
  105.  
  106. Text #4
  107. ID                                       : 6
  108. Format                                   : UTF-8
  109. Codec ID                                 : S_TEXT/UTF8
  110. Codec ID/Info                            : UTF-8 Plain Text
  111. Duration                                 : 1 h 22 min
  112. Bit rate                                 : 43 b/s
  113. Count of elements                        : 899
  114. Stream size                              : 26.3 KiB (0%)
  115. Title                                    : US
  116. Language                                 : English
  117. Default                                  : No
  118. Forced                                   : No
  119.  
  120. Menu
  121. 00:00:00.000                             : en:Studio Logo
  122. 00:00:38.000                             : en:Unexpected visitors come to the hotel
  123. 00:06:02.000                             : en:Opening Credits
  124. 00:07:47.000                             : en:Another day at the office
  125. 00:11:13.000                             : en:A suspicious sniper
  126. 00:20:28.000                             : en:A change in the plan
  127. 00:27:40.000                             : en:Playing mind games
  128. 00:36:46.000                             : en:A desperate plan for escape
  129. 00:42:06.000                             : en:Time to steal a ride
  130. 00:45:44.000                             : en:Checking in at the Hotel Franco
  131. 00:52:09.000                             : en:Tough negotiations
  132. 00:59:59.000                             : en:Choosing a side
  133. 01:06:36.000                             : en:Time for a story
  134. 01:16:00.000                             : en:The hotel becomes a war zone
  135. 01:22:42.000                             : en:Tying up loose ends
  136. 01:27:46.000                             : en:End Credits
RAW Paste Data
We use cookies for various purposes including analytics. By continuing to use Pastebin, you agree to our use of cookies as described in the Cookies Policy. OK, I Understand
 
Top