GrabHD

Untitled

Feb 20th, 2020
95
Never
Not a member of Pastebin yet? Sign Up, it unlocks many cool features!
  1. Общее
  2. Уникальный идентификатор : 292323992120206757248203737632181042153 (0xDBEB8D90AB130F89EF59E5CBCF87BBE9)
  3. Полное имя : R:Frozen II (2019) BDRip 1080p [HEVC].mkv
  4. Формат : Matroska
  5. Версия формата : Version 4 / Version 2
  6. Размер файла : 4,70 Гбайт
  7. Продолжительность : 1 ч. 43 м.
  8. Общий поток : 6511 Кбит/сек
  9. Название фильма : Frozen II (2019)
  10. Дата кодирования : UTC 2020-02-20 04:38:01
  11. Программа кодирования : mkvmerge v43.0.0 ('The Quartermaster') 64-bit
  12. Библиотека кодирования : libebml v1.3.10 + libmatroska v1.5.2
  13. Обложка : Yes
  14. Attachments : cover.jpg
  15.  
  16. Видео
  17. Идентификатор : 1
  18. Формат : HEVC
  19. Формат/Информация : High Efficiency Video Coding
  20. Профиль формата : Main 10@L4.1@High
  21. Идентификатор кодека : V_MPEGH/ISO/HEVC
  22. Продолжительность : 1 ч. 43 м.
  23. Битрейт : 5292 Кбит/сек
  24. Ширина : 1920 пикселей
  25. Высота : 804 пикселя
  26. Соотношение сторон : 2,40:1
  27. Режим частоты кадров : Постоянный
  28. Частота кадров : 23,976 (23976/1000) кадра/сек
  29. Частота кадров в оригинале : 23,976 (24000/1001) кадра/сек
  30. Цветовое пространство : YUV
  31. Субдискретизация насыщенности : 4:2:0
  32. Битовая глубина : 10 бит
  33. Бит/(Пиксели*Кадры) : 0.143
  34. Размер потока : 3,82 Гбайт (81%)
  35. Библиотека кодирования : x265 3.2.1+1-b5c86a64bbbe:[Windows][MSVC 1923][64 bit] 10bit
  36. Настройки программы : cpuid=1111039 / frame-threads=3 / numa-pools=12 / wpp / no-pmode / no-pme / no-psnr / no-ssim / log-level=2 / input-csp=1 / input-res=1920x804 / interlace=0 / total-frames=131275 / level-idc=41 / high-tier=1 / uhd-bd=0 / ref=5 / no-allow-non-conformance / no-repeat-headers / annexb / no-aud / no-hrd / info / hash=0 / no-temporal-layers / open-gop / min-keyint=23 / keyint=240 / gop-lookahead=0 / bframes=12 / b-adapt=2 / b-pyramid / bframe-bias=0 / rc-lookahead=60 / lookahead-slices=4 / scenecut=40 / radl=0 / no-splice / no-intra-refresh / ctu=32 / min-cu-size=8 / rect / amp / max-tu-size=32 / tu-inter-depth=4 / tu-intra-depth=4 / limit-tu=1 / rdoq-level=2 / dynamic-rd=0.00 / no-ssim-rd / signhide / no-tskip / nr-intra=0 / nr-inter=0 / no-constrained-intra / no-strong-intra-smoothing / max-merge=4 / limit-refs=2 / limit-modes / me=3 / subme=7 / merange=57 / temporal-mvp / no-hme / weightp / weightb / no-analyze-src-pics / deblock=-3:-3 / no-sao / no-sao-non-deblock / rd=6 / selective-sao=0 / no-early-skip / no-rskip / no-fast-intra / no-tskip-fast / no-cu-lossless / no-b-intra / no-splitrd-skip / rdpenalty=0 / psy-rd=2.00 / psy-rdoq=1.00 / no-rd-refine / no-lossless / cbqpoffs=0 / crqpoffs=0 / rc=crf / crf=19.0 / qcomp=0.60 / qpstep=4 / stats-write=0 / stats-read=0 / vbv-maxrate=50000 / vbv-bufsize=50000 / vbv-init=0.9 / crf-max=0.0 / crf-min=0.0 / ipratio=1.40 / pbratio=1.30 / aq-mode=1 / aq-strength=1.00 / no-cutree / zone-count=0 / no-strict-cbr / qg-size=32 / no-rc-grain / qpmax=69 / qpmin=0 / no-const-vbv / sar=1 / overscan=0 / videoformat=5 / range=0 / colorprim=1 / transfer=1 / colormatrix=1 / chromaloc=0 / display-window=0 / cll=0,0 / min-luma=0 / max-luma=1023 / log2-max-poc-lsb=8 / vui-timing-info / vui-hrd-info / slices=1 / no-opt-qp-pps / no-opt-ref-list-length-pps / no-multi-pass-opt-rps / scenecut-bias=0.05 / no-opt-cu-delta-qp / no-aq-motion / no-hdr / no-hdr-opt / no-dhdr10-opt / no-idr-recovery-sei / analysis-reuse-level=5 / scale-factor=0 / refine-intra=0 / refine-inter=0 / refine-mv=1 / refine-ctu-distortion=0 / no-limit-sao / ctu-info=0 / no-lowpass-dct / refine-analysis-type=0 / copy-pic=1 / max-ausize-factor=1.0 / no-dynamic-refine / no-single-sei / no-hevc-aq / no-svt / no-field / qp-adaptation-range=1.00
  37. Default : Да
  38. Forced : Нет
  39. Цветовой диапазон : Limited
  40. Основные цвета : BT.709
  41. Характеристики трансфера : BT.709
  42. Коэффициенты матрицы : BT.709
  43.  
  44. Аудио #1
  45. Идентификатор : 2
  46. Формат : AC-3
  47. Формат/Информация : Audio Coding 3
  48. Идентификатор кодека : A_AC3
  49. Продолжительность : 1 ч. 43 м.
  50. Вид битрейта : Постоянный
  51. Битрейт : 384 Кбит/сек
  52. Каналы : 6 каналов
  53. Расположение каналов : Front: L C R, Side: L R, LFE
  54. Частота : 48,0 КГц
  55. Частота кадров : 31,250 кадров/сек (1536 SPF)
  56. Битовая глубина : 16 бит
  57. Метод сжатия : С потерями
  58. Размер потока : 283 Мбайт (6%)
  59. Заголовок : iTunes
  60. Язык : Russian
  61. ServiceKind/Strin : Complete Main
  62. Default : Да
  63. Forced : Да
  64.  
  65. Аудио #2
  66. Идентификатор : 3
  67. Формат : AC-3
  68. Формат/Информация : Audio Coding 3
  69. Идентификатор кодека : A_AC3
  70. Продолжительность : 1 ч. 43 м.
  71. Вид битрейта : Постоянный
  72. Битрейт : 192 Кбит/сек
  73. Каналы : 2 канала
  74. Расположение каналов : Front: L R
  75. Частота : 48,0 КГц
  76. Частота кадров : 31,250 кадров/сек (1536 SPF)
  77. Битовая глубина : 16 бит
  78. Метод сжатия : С потерями
  79. Задержка видео : 950 мс.
  80. Размер потока : 142 Мбайт (3%)
  81. Заголовок : Line
  82. Язык : Ukrainian
  83. ServiceKind/Strin : Complete Main
  84. Default : Нет
  85. Forced : Нет
  86.  
  87. Аудио #3
  88. Идентификатор : 4
  89. Формат : AC-3
  90. Формат/Информация : Audio Coding 3
  91. Идентификатор кодека : A_AC3
  92. Продолжительность : 1 ч. 43 м.
  93. Вид битрейта : Постоянный
  94. Битрейт : 640 Кбит/сек
  95. Каналы : 6 каналов
  96. Расположение каналов : Front: L C R, Side: L R, LFE
  97. Частота : 48,0 КГц
  98. Частота кадров : 31,250 кадров/сек (1536 SPF)
  99. Битовая глубина : 16 бит
  100. Метод сжатия : С потерями
  101. Размер потока : 473 Мбайт (10%)
  102. Заголовок : Original
  103. Язык : English
  104. ServiceKind/Strin : Complete Main
  105. Default : Нет
  106. Forced : Нет
  107.  
  108. Текст #1
  109. Идентификатор : 5
  110. Формат : UTF-8
  111. Идентификатор кодека : S_TEXT/UTF8
  112. Идентификатор кодека/Информация : UTF-8 Plain Text
  113. Продолжительность : 1 ч. 41 м.
  114. Битрейт : 72 бит/сек
  115. ElementCount : 1312
  116. Размер потока : 53,9 Кбайт (0%)
  117. Заголовок : Full
  118. Язык : Russian
  119. Default : Нет
  120. Forced : Нет
  121.  
  122. Текст #2
  123. Идентификатор : 6
  124. Формат : UTF-8
  125. Идентификатор кодека : S_TEXT/UTF8
  126. Идентификатор кодека/Информация : UTF-8 Plain Text
  127. Продолжительность : 1 ч. 42 м.
  128. Битрейт : 95 бит/сек
  129. ElementCount : 1810
  130. Размер потока : 71,6 Кбайт (0%)
  131. Заголовок : SDH
  132. Язык : Russian
  133. Default : Нет
  134. Forced : Нет
  135.  
  136. Текст #3
  137. Идентификатор : 7
  138. Формат : UTF-8
  139. Идентификатор кодека : S_TEXT/UTF8
  140. Идентификатор кодека/Информация : UTF-8 Plain Text
  141. Продолжительность : 1 ч. 41 м.
  142. Битрейт : 56 бит/сек
  143. ElementCount : 1560
  144. Размер потока : 42,0 Кбайт (0%)
  145. Заголовок : Full
  146. Язык : English
  147. Default : Нет
  148. Forced : Нет
  149.  
  150. Текст #4
  151. Идентификатор : 8
  152. Формат : UTF-8
  153. Идентификатор кодека : S_TEXT/UTF8
  154. Идентификатор кодека/Информация : UTF-8 Plain Text
  155. Продолжительность : 1 ч. 42 м.
  156. Битрейт : 68 бит/сек
  157. ElementCount : 1930
  158. Размер потока : 51,2 Кбайт (0%)
  159. Заголовок : SDH
  160. Язык : English
  161. Default : Нет
  162. Forced : Нет
  163.  
  164. Меню
  165. 00:00:00.000 : en:Chapter 1
  166. 00:05:42.592 : en:Chapter 2
  167. 00:08:27.716 : en:Chapter 3
  168. 00:15:01.400 : en:Chapter 4
  169. 00:16:29.655 : en:Chapter 5
  170. 00:21:25.117 : en:Chapter 6
  171. 00:25:45.252 : en:Chapter 7
  172. 00:29:08.914 : en:Chapter 8
  173. 00:33:45.023 : en:Chapter 9
  174. 00:40:27.216 : en:Chapter 10
  175. 00:44:37.925 : en:Chapter 11
  176. 00:47:42.318 : en:Chapter 12
  177. 00:53:04.515 : en:Chapter 13
  178. 00:55:27.241 : en:Chapter 14
  179. 01:02:36.711 : en:Chapter 15
  180. 01:09:57.527 : en:Chapter 16
  181. 01:13:48.382 : en:Chapter 17
  182. 01:19:26.637 : en:Chapter 18
  183. 01:24:28.146 : en:Chapter 19
  184. 01:31:17.263 : en:Chapter 20
RAW Paste Data