Ledger Nano X - The secure hardware wallet
SHARE
TWEET

Untitled

a guest Mar 22nd, 2019 71 Never
Not a member of Pastebin yet? Sign Up, it unlocks many cool features!
  1. % mediainfo freer_1550220174-1.mp4
  2. General
  3. Complete name                            : freer_1550220174-1.mp4
  4. Format                                   : MPEG-4
  5. Format profile                           : Base Media
  6. Codec ID                                 : isom (isom/iso2/avc1/mp41)
  7. File size                                : 96.4 MiB
  8. Duration                                 : 12 min 53 s
  9. Overall bit rate                         : 1 046 kb/s
  10. Writing application                      : Lavf58.16.100
  11.  
  12. Video
  13. ID                                       : 1
  14. Format                                   : AVC
  15. Format/Info                              : Advanced Video Codec
  16. Format profile                           : High@L3
  17. Format settings                          : CABAC / 4 Ref Frames
  18. Format settings, CABAC                   : Yes
  19. Format settings, ReFrames                : 4 frames
  20. Codec ID                                 : avc1
  21. Codec ID/Info                            : Advanced Video Coding
  22. Duration                                 : 12 min 53 s
  23. Bit rate                                 : 900 kb/s
  24. Width                                    : 720 pixels
  25. Height                                   : 404 pixels
  26. Display aspect ratio                     : 16:9
  27. Frame rate mode                          : Constant
  28. Frame rate                               : 25.000 FPS
  29. Color space                              : YUV
  30. Chroma subsampling                       : 4:2:0
  31. Bit depth                                : 8 bits
  32. Scan type                                : Progressive
  33. Bits/(Pixel*Frame)                       : 0.124
  34. Stream size                              : 83.5 MiB (87%)
  35. Writing library                          : x264 core 152 r2854 e9a5903
  36. Encoding settings                        : cabac=1 / ref=3 / deblock=1:0:0 / analyse=0x3:0x113 / me=hex / subme=7 / psy=1 / psy_rd=1.00:0.00 / mixed_ref=1 / me_range=16 / chroma_me=1 / trellis=1 / 8x8dct=1 / cqm=0 / deadzone=21,11 / fast_pskip=1 / chroma_qp_offset=-2 / threads=13 / lookahead_threads=2 / sliced_threads=0 / nr=0 / decimate=1 / interlaced=0 / bluray_compat=0 / constrained_intra=0 / bframes=3 / b_pyramid=2 / b_adapt=1 / b_bias=0 / direct=1 / weightb=1 / open_gop=0 / weightp=2 / keyint=250 / keyint_min=25 / scenecut=40 / intra_refresh=0 / rc_lookahead=40 / rc=abr / mbtree=1 / bitrate=900 / ratetol=1.0 / qcomp=0.60 / qpmin=0 / qpmax=69 / qpstep=4 / ip_ratio=1.40 / aq=1:1.00
  37. Codec configuration box                  : avcC
  38.  
  39. Audio
  40. ID                                       : 2
  41. Format                                   : AAC LC
  42. Format/Info                              : Advanced Audio Codec Low Complexity
  43. Codec ID                                 : mp4a-40-2
  44. Duration                                 : 12 min 52 s
  45. Bit rate mode                            : Constant
  46. Bit rate                                 : 132 kb/s
  47. Channel(s)                               : 2 channels
  48. Channel layout                           : L R
  49. Sampling rate                            : 44.1 kHz
  50. Frame rate                               : 43.066 FPS (1024 SPF)
  51. Compression mode                         : Lossy
  52. Stream size                              : 12.3 MiB (13%)
  53. Default                                  : Yes
  54. Alternate group                          : 1
RAW Paste Data
We use cookies for various purposes including analytics. By continuing to use Pastebin, you agree to our use of cookies as described in the Cookies Policy. OK, I Understand
Top