Guest User

IronClad for NeoGeo CD - CUE file

a guest
Feb 14th, 2019
109
Never
Not a member of Pastebin yet? Sign Up, it unlocks many cool features!
  1. CATALOG 4946318096037
  2. FILE "Track01.iso" BINARY
  3. TRACK 01 MODE1/2048
  4. INDEX 01 00:00:00
  5. FILE "Track02.mp3" MP3
  6. TRACK 02 AUDIO
  7. PREGAP 00:03:00
  8. INDEX 01 00:00:00
  9. FILE "Track03.mp3" MP3
  10. TRACK 03 AUDIO
  11. INDEX 00 00:00:00
  12. INDEX 01 00:02:00
  13. FILE "Track04.mp3" MP3
  14. TRACK 04 AUDIO
  15. INDEX 00 00:00:00
  16. INDEX 01 00:02:00
  17. FILE "Track05.mp3" MP3
  18. TRACK 05 AUDIO
  19. INDEX 00 00:00:00
  20. INDEX 01 00:02:00
  21. FILE "Track06.mp3" MP3
  22. TRACK 06 AUDIO
  23. INDEX 00 00:00:00
  24. INDEX 01 00:02:00
  25. FILE "Track07.mp3" MP3
  26. TRACK 07 AUDIO
  27. INDEX 00 00:00:00
  28. INDEX 01 00:02:00
  29. FILE "Track08.mp3" MP3
  30. TRACK 08 AUDIO
  31. INDEX 00 00:00:00
  32. INDEX 01 00:02:00
  33. FILE "Track09.mp3" MP3
  34. TRACK 09 AUDIO
  35. INDEX 00 00:00:00
  36. INDEX 01 00:02:00
  37. FILE "Track10.mp3" MP3
  38. TRACK 10 AUDIO
  39. INDEX 00 00:00:00
  40. INDEX 01 00:02:00
  41. FILE "Track11.mp3" MP3
  42. TRACK 11 AUDIO
  43. INDEX 00 00:00:00
  44. INDEX 01 00:02:00
  45. FILE "Track12.mp3" MP3
  46. TRACK 12 AUDIO
  47. INDEX 00 00:00:00
  48. INDEX 01 00:02:00
  49. FILE "Track13.mp3" MP3
  50. TRACK 13 AUDIO
  51. INDEX 00 00:00:00
  52. INDEX 01 00:02:00
  53. FILE "Track14.mp3" MP3
  54. TRACK 14 AUDIO
  55. INDEX 00 00:00:00
  56. INDEX 01 00:02:00
  57. FILE "Track15.mp3" MP3
  58. TRACK 15 AUDIO
  59. INDEX 00 00:00:00
  60. INDEX 01 00:02:00
  61. FILE "Track16.mp3" MP3
  62. TRACK 16 AUDIO
  63. INDEX 00 00:00:00
  64. INDEX 01 00:02:00
  65. FILE "Track17.mp3" MP3
  66. TRACK 17 AUDIO
  67. INDEX 00 00:00:00
  68. INDEX 01 00:02:00
  69. FILE "Track18.mp3" MP3
  70. TRACK 18 AUDIO
  71. INDEX 00 00:00:00
  72. INDEX 01 00:02:00
  73. FILE "Track19.mp3" MP3
  74. TRACK 19 AUDIO
  75. INDEX 00 00:00:00
  76. INDEX 01 00:02:00
  77. FILE "Track20.mp3" MP3
  78. TRACK 20 AUDIO
  79. INDEX 00 00:00:00
  80. INDEX 01 00:02:00
RAW Paste Data