SHARE
TWEET

The Thing REMASTERED BluRay 720p

dirtyharrys Apr 16th, 2019 14 Never
Not a member of Pastebin yet? Sign Up, it unlocks many cool features!
  1. General
  2. Unique ID                   : 58277851871862756641737395375197133846 (0x2BD7E7EFB62A0BA8414129DD9D881C16)
  3. Complete name               : E:\QlJSVGhlVGhpbmdSRU1BU1RFUkVE.mkv
  4. Format                      : Matroska
  5. Format version              : Version 4
  6. File size                   : 1.69 GiB
  7. Duration                    : 1 h 48 min
  8. Overall bit rate            : 2 220 kb/s
  9. Movie name                  : The Thing REMASTERED BR-RIP / The Thing REMASTERED BR-RIP
  10. Encoded date                : UTC 2019-04-16 08:47:44
  11. Writing application         : mkvmerge v30.1.0 ('Forever And More') 32-bit
  12. Writing library             : libebml v1.3.6 + libmatroska v1.4.9
  13. Copyright                   : Movies HDs 2019
  14. ARTIST                      : HarshLearner
  15.  
  16. Video
  17. ID                          : 1
  18. Format                      : AVC
  19. Format/Info                 : Advanced Video Codec
  20. Format profile              : High@L4.1
  21. Format settings             : CABAC / 4 Ref Frames
  22. Format settings, CABAC      : Yes
  23. Format settings, ReFrames   : 4 frames
  24. Codec ID                    : V_MPEG4/ISO/AVC
  25. Duration                    : 1 h 48 min
  26. Bit rate                    : 1 500 kb/s
  27. Width                       : 1 280 pixels
  28. Height                      : 546 pixels
  29. Display aspect ratio        : 2.35:1
  30. Original display aspect rat : 2.35:1
  31. Frame rate mode             : Constant
  32. Frame rate                  : 23.976 (24000/1001) FPS
  33. Original frame rate         : 23.976 (23976/1000) FPS
  34. Color space                 : YUV
  35. Chroma subsampling          : 4:2:0
  36. Bit depth                   : 8 bits
  37. Scan type                   : Progressive
  38. Bits/(Pixel*Frame)          : 0.090
  39. Stream size                 : 1.14 GiB (67%)
  40. Title                       : The Thing REMASTERED
  41. Writing library             : x264 core 152 r2851M ba24899
  42. Default                     : Yes
  43. Forced                      : No
  44.  
  45. Audio #1
  46. ID                          : 2
  47. Format                      : AC-3
  48. Format/Info                 : Audio Coding 3
  49. Commercial name             : Dolby Digital
  50. Codec ID                    : A_AC3
  51. Duration                    : 1 h 48 min
  52. Bit rate mode               : Constant
  53. Bit rate                    : 448 kb/s
  54. Channel(s)                  : 6 channels
  55. Channel layout              : L R C LFE Ls Rs
  56. Sampling rate               : 48.0 kHz
  57. Frame rate                  : 31.250 FPS (1536 SPF)
  58. Bit depth                   : 16 bits
  59. Compression mode            : Lossy
  60. Stream size                 : 348 MiB (20%)
  61. Language                    : English
  62. Service kind                : Complete Main
  63. Default                     : No
  64. Forced                      : No
  65.  
  66. Audio #2
  67. ID                          : 3
  68. Format                      : AC-3
  69. Format/Info                 : Audio Coding 3
  70. Commercial name             : Dolby Digital
  71. Codec ID                    : A_AC3
  72. Duration                    : 1 h 48 min
  73. Bit rate mode               : Constant
  74. Bit rate                    : 256 kb/s
  75. Channel(s)                  : 2 channels
  76. Channel layout              : L R
  77. Sampling rate               : 44.1 kHz
  78. Frame rate                  : 28.711 FPS (1536 SPF)
  79. Bit depth                   : 16 bits
  80. Compression mode            : Lossy
  81. Stream size                 : 199 MiB (12%)
  82. Language                    : Spanish
  83. Service kind                : Complete Main
  84. Default                     : Yes
  85. Forced                      : Yes
  86.  
  87. Text #1
  88. ID                          : 4
  89. Format                      : PGS
  90. Muxing mode                 : zlib
  91. Codec ID                    : S_HDMV/PGS
  92. Codec ID/Info               : Picture based subtitle format used on BDs/HD-DVDs
  93. Duration                    : 1 h 37 min
  94. Bit rate                    : 14.9 kb/s
  95. Count of elements           : 1416
  96. Stream size                 : 10.4 MiB (1%)
  97. Language                    : English
  98. Default                     : No
  99. Forced                      : No
  100.  
  101. Text #2
  102. ID                          : 5
  103. Format                      : PGS
  104. Muxing mode                 : zlib
  105. Codec ID                    : S_HDMV/PGS
  106. Codec ID/Info               : Picture based subtitle format used on BDs/HD-DVDs
  107. Duration                    : 1 h 46 min
  108. Bit rate                    : 12.5 kb/s
  109. Count of elements           : 1278
  110. Stream size                 : 9.53 MiB (1%)
  111. Language                    : Spanish
  112. Default                     : No
  113. Forced                      : No
  114.  
  115. Text #3
  116. ID                          : 6
  117. Format                      : UTF-8
  118. Codec ID                    : S_TEXT/UTF8
  119. Codec ID/Info               : UTF-8 Plain Text
  120. Duration                    : 1 h 36 min
  121. Bit rate                    : 32 b/s
  122. Count of elements           : 637
  123. Stream size                 : 23.1 KiB (0%)
  124. Language                    : English
  125. Default                     : No
  126. Forced                      : No
  127.  
  128. Text #4
  129. ID                          : 7
  130. Format                      : UTF-8
  131. Codec ID                    : S_TEXT/UTF8
  132. Codec ID/Info               : UTF-8 Plain Text
  133. Duration                    : 1 h 39 min
  134. Bit rate                    : 33 b/s
  135. Count of elements           : 713
  136. Stream size                 : 24.6 KiB (0%)
  137. Title                       : SDH
  138. Language                    : English
  139. Default                     : No
  140. Forced                      : No
  141.  
  142. Text #5
  143. ID                          : 8
  144. Format                      : UTF-8
  145. Codec ID                    : S_TEXT/UTF8
  146. Codec ID/Info               : UTF-8 Plain Text
  147. Duration                    : 1 h 39 min
  148. Bit rate                    : 31 b/s
  149. Count of elements           : 643
  150. Stream size                 : 23.1 KiB (0%)
  151. Language                    : Spanish
  152. Default                     : Yes
  153. Forced                      : Yes
  154.  
  155. Menu
  156. 00:00:00.000                : en:(01)00:00:00:000
  157. 00:02:07.794                : en:(02)00:02:07:794
  158. 00:04:34.899                : en:(03)00:04:34:899
  159. 00:07:02.880                : en:(04)00:07:02:880
  160. 00:10:24.248                : en:(05)00:10:24:248
  161. 00:14:22.987                : en:(06)00:14:22:987
  162. 00:15:49.281                : en:(07)00:15:49:281
  163. 00:22:14.249                : en:(08)00:22:14:249
  164. 00:24:50.447                : en:(09)00:24:50:447
  165. 00:27:01.620                : en:(10)00:27:01:620
  166. 00:30:13.812                : en:(11)00:30:13:812
  167. 00:33:03.481                : en:(12)00:33:03:481
  168. 00:34:15.720                : en:(13)00:34:15:720
  169. 00:36:03.411                : en:(14)00:36:03:411
  170. 00:37:22.657                : en:(15)00:37:22:657
  171. 00:40:05.444                : en:(16)00:40:05:444
  172. 00:41:44.627                : en:(17)00:41:44:627
  173. 00:45:32.312                : en:(18)00:45:32:312
  174. 00:46:31.747                : en:(19)00:46:31:747
  175. 00:50:18.223                : en:(20)00:50:18:223
  176. 00:54:44.197                : en:(21)00:54:44:197
  177. 00:57:36.411                : en:(22)00:57:36:411
  178. 00:59:08.795                : en:(23)00:59:08:795
  179. 01:02:47.388                : en:(24)01:02:47:388
  180. 01:05:28.382                : en:(25)01:05:28:382
  181. 01:09:51.979                : en:(26)01:09:51:979
  182. 01:14:23.667                : en:(27)01:14:23:667
  183. 01:17:43.700                : en:(28)01:17:43:700
  184. 01:18:44.803                : en:(29)01:18:44:803
  185. 01:25:18.571                : en:(30)01:25:18:571
  186. 01:26:41.237                : en:(31)01:26:41:237
  187. 01:29:19.187                : en:(32)01:29:19:187
  188. 01:31:14.969                : en:(33)01:31:14:969
  189. 01:34:25.701                : en:(34)01:34:25:701
  190. 01:37:19.333                : en:(35)01:37:19:333
  191. 01:39:14.448                : en:(36)01:39:14:448
  192. 01:42:09.206                : en:(37)01:42:09:206
  193. 01:48:42.182                : en:(38)01:48:42:182
RAW Paste Data
We use cookies for various purposes including analytics. By continuing to use Pastebin, you agree to our use of cookies as described in the Cookies Policy. OK, I Understand
 
Top