SHARE
TWEET

American.Psycho.2000.1080p.BluRay.15th.Ann.UNRATED.Plus.Comms.DTS.x264-MaG

a guest Jun 5th, 2019 88 Never
Not a member of Pastebin yet? Sign Up, it unlocks many cool features!
  1. General
  2. Unique ID                                : 186136211444834126438816794770179353485 (0x8C0887C41395C5EE86720413ACC7EB8D)
  3. Complete name                            : American.Psycho.2000.1080p.BluRay.15th.Ann.UNRATED.Plus.Comms.DTS.x264-MaG.mkv
  4. Format                                   : Matroska
  5. Format version                           : Version 4
  6. File size                                : 8.29 GiB
  7. Duration                                 : 1 h 42 min
  8. Overall bit rate                         : 11.6 Mb/s
  9. Encoded date                             : UTC 2018-10-01 13:28:39 / UTC 2018-09-30T18:04:04Z
  10. Writing application                      : mkvmerge v9.5.0 ('Quiet Fire') 64bit
  11. Writing library                          : libebml v1.3.4 + libmatroska v1.4.5 / Lavf57.7.2
  12.  
  13. Video
  14. ID                                       : 1
  15. Format                                   : AVC
  16. Format/Info                              : Advanced Video Codec
  17. Format profile                           : High@L4.1
  18. Format settings                          : CABAC / 5 Ref Frames
  19. Format settings, CABAC                   : Yes
  20. Format settings, Reference frames        : 5 frames
  21. Codec ID                                 : V_MPEG4/ISO/AVC
  22. Duration                                 : 1 h 42 min
  23. Bit rate                                 : 10.3 Mb/s
  24. Width                                    : 1 920 pixels
  25. Height                                   : 816 pixels
  26. Display aspect ratio                     : 2.35:1
  27. Frame rate mode                          : Constant
  28. Frame rate                               : 23.976 (24000/1001) FPS
  29. Color space                              : YUV
  30. Chroma subsampling                       : 4:2:0
  31. Bit depth                                : 8 bits
  32. Scan type                                : Progressive
  33. Bits/(Pixel*Frame)                       : 0.273
  34. Stream size                              : 7.31 GiB (88%)
  35. Writing library                          : x264 core 148 r2708 86b7198
  36. Encoding settings                        : cabac=1 / ref=5 / deblock=1:-3:-3 / analyse=0x3:0x133 / me=umh / subme=9 / psy=1 / psy_rd=1.00:0.00 / mixed_ref=1 / me_range=24 / chroma_me=1 / trellis=2 / 8x8dct=1 / cqm=0 / deadzone=21,11 / fast_pskip=0 / chroma_qp_offset=-2 / threads=6 / lookahead_threads=1 / sliced_threads=0 / nr=0 / decimate=1 / interlaced=0 / bluray_compat=0 / constrained_intra=0 / bframes=6 / b_pyramid=2 / b_adapt=2 / b_bias=0 / direct=3 / weightb=1 / open_gop=0 / weightp=2 / keyint=240 / keyint_min=24 / scenecut=40 / intra_refresh=0 / rc_lookahead=60 / rc=crf / mbtree=1 / crf=16.0 / qcomp=0.60 / qpmin=0 / qpmax=69 / qpstep=4 / vbv_maxrate=62500 / vbv_bufsize=78125 / crf_max=0.0 / nal_hrd=none / filler=0 / ip_ratio=1.40 / aq=1:1.00
  37. Default                                  : Yes
  38. Forced                                   : No
  39. Color range                              : Limited
  40. Color primaries                          : BT.709
  41. Transfer characteristics                 : BT.709
  42. Matrix coefficients                      : BT.709
  43. Statistics Tags Issue                    : mkvmerge v9.5.0 ('Quiet Fire') 64bit 2018-10-01 13:28:39 / mkvmerge v9.5.0 ('Quiet Fire') 64bit 2018-10-01 13:28:39 / UTC 2018-09-30T18:04:04Z
  44. FromStats_BitRate                        : 10469260
  45. FromStats_Duration                       : 01:42:01.115000000
  46. FromStats_FrameCount                     : 146757
  47. FromStats_StreamSize                     : 8010443213
  48.  
  49. Audio #1
  50. ID                                       : 2
  51. Format                                   : DTS
  52. Format/Info                              : Digital Theater Systems
  53. Codec ID                                 : A_DTS
  54. Duration                                 : 1 h 42 min
  55. Bit rate mode                            : Constant
  56. Bit rate                                 : 768 kb/s
  57. Channel(s)                               : 6 channels
  58. Channel layout                           : C L R Ls Rs LFE
  59. Sampling rate                            : 48.0 kHz
  60. Frame rate                               : 93.750 FPS (512 SPF)
  61. Bit depth                                : 24 bits
  62. Compression mode                         : Lossy
  63. Stream size                              : 560 MiB (7%)
  64. Title                                    : DTS 5.1 Audio
  65. Language                                 : English
  66. Default                                  : Yes
  67. Forced                                   : No
  68. Statistics Tags Issue                    : mkvmerge v9.5.0 ('Quiet Fire') 64bit 2018-10-01 13:28:39 / mkvmerge v9.5.0 ('Quiet Fire') 64bit 2018-10-01 13:28:39 / UTC 2018-09-30T18:04:04Z
  69. FromStats_BitRate                        : 767999
  70. FromStats_Duration                       : 01:42:01.142000000
  71. FromStats_FrameCount                     : 573857
  72. FromStats_StreamSize                     : 587629568
  73.  
  74. Audio #2
  75. ID                                       : 3
  76. Format                                   : AC-3
  77. Format/Info                              : Audio Coding 3
  78. Commercial name                          : Dolby Digital
  79. Codec ID                                 : A_AC3
  80. Duration                                 : 1 h 42 min
  81. Bit rate mode                            : Constant
  82. Bit rate                                 : 192 kb/s
  83. Channel(s)                               : 2 channels
  84. Channel layout                           : L R
  85. Sampling rate                            : 48.0 kHz
  86. Frame rate                               : 31.250 FPS (1536 SPF)
  87. Bit depth                                : 16 bits
  88. Compression mode                         : Lossy
  89. Stream size                              : 140 MiB (2%)
  90. Title                                    : Commentary with Director/Co-Writer Mary Harron
  91. Language                                 : English
  92. Service kind                             : Complete Main
  93. Default                                  : No
  94. Forced                                   : No
  95. Statistics Tags Issue                    : mkvmerge v9.5.0 ('Quiet Fire') 64bit 2018-10-01 13:28:39 / mkvmerge v9.5.0 ('Quiet Fire') 64bit 2018-10-01 13:28:39 / UTC 2018-09-30T18:04:04Z
  96. FromStats_BitRate                        : 192000
  97. FromStats_Duration                       : 01:42:01.152000000
  98. FromStats_FrameCount                     : 191286
  99. FromStats_StreamSize                     : 146907648
  100.  
  101. Audio #3
  102. ID                                       : 4
  103. Format                                   : AC-3
  104. Format/Info                              : Audio Coding 3
  105. Commercial name                          : Dolby Digital
  106. Codec ID                                 : A_AC3
  107. Duration                                 : 1 h 42 min
  108. Bit rate mode                            : Constant
  109. Bit rate                                 : 192 kb/s
  110. Channel(s)                               : 2 channels
  111. Channel layout                           : L R
  112. Sampling rate                            : 48.0 kHz
  113. Frame rate                               : 31.250 FPS (1536 SPF)
  114. Bit depth                                : 16 bits
  115. Compression mode                         : Lossy
  116. Stream size                              : 140 MiB (2%)
  117. Title                                    : Commentary with Co-Writer/Actor Guinevere Turner
  118. Language                                 : English
  119. Service kind                             : Complete Main
  120. Default                                  : No
  121. Forced                                   : No
  122. Statistics Tags Issue                    : mkvmerge v9.5.0 ('Quiet Fire') 64bit 2018-10-01 13:28:39 / mkvmerge v9.5.0 ('Quiet Fire') 64bit 2018-10-01 13:28:39 / UTC 2018-09-30T18:04:04Z
  123. FromStats_BitRate                        : 192000
  124. FromStats_Duration                       : 01:42:01.152000000
  125. FromStats_FrameCount                     : 191286
  126. FromStats_StreamSize                     : 146907648
  127.  
  128. Text
  129. ID                                       : 5
  130. Format                                   : PGS
  131. Muxing mode                              : zlib
  132. Codec ID                                 : S_HDMV/PGS
  133. Codec ID/Info                            : Picture based subtitle format used on BDs/HD-DVDs
  134. Language                                 : English
  135. Default                                  : No
  136. Forced                                   : No
  137. Statistics Tags Issue                    : mkvmerge v9.5.0 ('Quiet Fire') 64bit 2018-10-01 13:28:39 / mkvmerge v9.5.0 ('Quiet Fire') 64bit 2018-10-01 13:28:39 / UTC 2018-09-30T18:04:04Z
  138. FromStats_BitRate                        : 13162
  139. FromStats_Duration                       : 01:39:49.358000000
  140. FromStats_FrameCount                     : 3005
  141. FromStats_StreamSize                     : 9854423
  142.  
  143. Menu
  144. 00:00:00.000                             : :Chapter 1
  145. 00:10:06.648                             : :Chapter 2
  146. 00:22:28.264                             : :Chapter 3
  147. 00:31:17.209                             : :Chapter 4
  148. 00:37:04.931                             : :Chapter 5
  149. 00:45:30.686                             : :Chapter 6
  150. 00:51:55.696                             : :Chapter 7
  151. 00:59:28.774                             : :Chapter 8
  152. 01:07:04.646                             : :Chapter 9
  153. 01:13:46.047                             : :Chapter 10
  154. 01:18:32.833                             : :Chapter 11
  155. 01:25:40.844                             : :Chapter 12
RAW Paste Data
We use cookies for various purposes including analytics. By continuing to use Pastebin, you agree to our use of cookies as described in the Cookies Policy. OK, I Understand
 
Top