TolstiyMob

Katanagatari Vol.7 Akuto Bita

Oct 26th, 2011
122
Never
Not a member of Pastebin yet? Sign Up, it unlocks many cool features!
  1. Disc Title: BDROM
  2. Disc Size: 16 914 556 052 bytes
  3. Protection: AACS
  4. BD-Java: No
  5. BDInfo: 0.5.6
  6.  
  7. Notes:
  8.  
  9. BDINFO HOME:
  10. Cinema Squid
  11. http://www.cinemasquid.com/blu-ray/tools/bdinfo
  12.  
  13. INCLUDES FORUMS REPORT FOR:
  14. AVS Forum Blu-ray Audio and Video Specifications Thread
  15. http://www.avsforum.com/avs-vb/showthread.php?t=1155731
  16.  
  17.  
  18. ********************
  19. PLAYLIST: 00000.MPLS
  20. ********************
  21.  
  22. <--- BEGIN FORUMS PASTE --->
  23. [code]
  24. Total Video
  25. Title Codec Length Movie Size Disc Size Bitrate Bitrate Main Audio Track Secondary Audio Track
  26. ----- ------ ------- -------------- -------------- ------- ------- ------------------ ---------------------
  27. 00000.MPLS AVC 0:49:50 15 764 625 408 16 914 556 052 42,18 38,00 LPCM 2.0 2304Kbps (48kHz/24-bit)
  28. [/code]
  29.  
  30. [code]
  31.  
  32. DISC INFO:
  33.  
  34. Disc Title: BDROM
  35. Disc Size: 16 914 556 052 bytes
  36. Protection: AACS
  37. BD-Java: No
  38. BDInfo: 0.5.6
  39.  
  40. PLAYLIST REPORT:
  41.  
  42. Name: 00000.MPLS
  43. Length: 0:49:50 (h:m:s)
  44. Size: 15 764 625 408 bytes
  45. Total Bitrate: 42,18 Mbps
  46.  
  47. VIDEO:
  48.  
  49. Codec Bitrate Description
  50. ----- ------- -----------
  51. MPEG-4 AVC Video 37997 kbps 1080p / 23,976 fps / 16:9 / High Profile 4.1
  52.  
  53. AUDIO:
  54.  
  55. Codec Language Bitrate Description
  56. ----- -------- ------- -----------
  57. LPCM Audio Japanese 2304 kbps 2.0 / 48 kHz / 2304 kbps / 24-bit
  58.  
  59. FILES:
  60.  
  61. Name Time In Length Size Total Bitrate
  62. ---- ------- ------ ---- -------------
  63. 00000.M2TS 0:00:00.000 0:49:50.028 15 764 625 408 42 179
  64.  
  65. CHAPTERS:
  66.  
  67. Number Time In Length Avg Video Rate Max 1-Sec Rate Max 1-Sec Time Max 5-Sec Rate Max 5-Sec Time Max 10Sec Rate Max 10Sec Time Avg Frame Size Max Frame Size Max Frame Time
  68. ------ ------- ------ -------------- -------------- -------------- -------------- -------------- -------------- -------------- -------------- -------------- --------------
  69. 1 0:00:00.000 0:02:22.016 38 972 kbps 41 794 kbps 00:02:11.631 40 058 kbps 00:02:10.505 39 847 kbps 00:02:02.580 203 124 bytes 431 331 bytes 00:02:15.385
  70. 2 0:02:22.016 0:01:30.006 38 057 kbps 49 225 kbps 00:03:20.992 40 898 kbps 00:02:26.479 39 963 kbps 00:03:02.974 198 411 bytes 637 403 bytes 00:03:14.194
  71. 3 0:03:52.023 0:06:42.068 37 073 kbps 47 011 kbps 00:09:18.724 40 489 kbps 00:08:58.913 39 961 kbps 00:04:44.367 193 284 bytes 640 762 bytes 00:05:34.876
  72. 4 0:10:34.091 0:07:51.012 38 030 kbps 52 580 kbps 00:18:12.132 41 904 kbps 00:18:08.128 40 482 kbps 00:18:03.040 198 272 bytes 641 066 bytes 00:17:11.488
  73. 5 0:18:25.104 0:12:26.036 38 662 kbps 53 254 kbps 00:26:06.648 42 073 kbps 00:26:02.644 40 040 kbps 00:24:26.465 201 565 bytes 641 081 bytes 00:28:54.190
  74. 6 0:30:51.140 0:16:32.992 38 078 kbps 47 625 kbps 00:38:34.061 41 029 kbps 00:31:09.117 40 339 kbps 00:31:04.070 198 521 bytes 640 994 bytes 00:46:31.163
  75. 7 0:47:24.132 0:01:29.964 39 480 kbps 42 397 kbps 00:48:52.638 39 948 kbps 00:48:48.592 39 746 kbps 00:48:43.170 205 829 bytes 627 258 bytes 00:47:51.159
  76. 8 0:48:54.097 0:00:17.016 34 769 kbps 42 585 kbps 00:48:57.017 40 028 kbps 00:49:05.150 38 667 kbps 00:49:00.854 181 268 bytes 639 432 bytes 00:48:59.019
  77. 9 0:49:11.114 0:00:37.078 27 793 kbps 43 927 kbps 00:49:12.532 40 459 kbps 00:49:13.825 40 041 kbps 00:49:11.865 144 901 bytes 640 089 bytes 00:49:16.036
  78. 10 0:49:48.193 0:00:01.835 2 001 kbps 3 644 kbps 00:49:48.986 0 kbps 00:00:00.000 0 kbps 00:00:00.000 10 673 bytes 208 334 bytes 00:49:49.987
  79.  
  80. STREAM DIAGNOSTICS:
  81.  
  82. File PID Type Codec Language Seconds Bitrate Bytes Packets
  83. ---- --- ---- ----- -------- -------------- -------------- ------------- -----
  84. 00000.M2TS 4113 (0x1011) 0x1B AVC 2989,862 37 999 14 201 342 029 77 223 209
  85. 00000.M2TS 4352 (0x1100) 0x80 LPCM jpn (Japanese) 2989,862 2 311 863 520 664 4 784 048
  86.  
  87. [/code]
  88. <---- END FORUMS PASTE ---->
  89.  
  90. QUICK SUMMARY:
  91.  
  92. Disc Title: BDROM
  93. Disc Size: 16 914 556 052 bytes
  94. Protection: AACS
  95. BD-Java: No
  96. Playlist: 00000.MPLS
  97. Size: 15 764 625 408 bytes
  98. Length: 0:49:50
  99. Total Bitrate: 42,18 Mbps
  100. Video: MPEG-4 AVC Video / 37997 kbps / 1080p / 23,976 fps / 16:9 / High Profile 4.1
  101. Audio: Japanese / LPCM Audio / 2.0 / 48 kHz / 2304 kbps / 24-bit
  102.  
  103.  
  104. ********************
  105. PLAYLIST: 00002.MPLS
  106. ********************
  107.  
  108. <--- BEGIN FORUMS PASTE --->
  109. [code]
  110. Total Video
  111. Title Codec Length Movie Size Disc Size Bitrate Bitrate Main Audio Track Secondary Audio Track
  112. ----- ------ ------- -------------- -------------- ------- ------- ------------------ ---------------------
  113. 00002.MPLS AVC 0:00:38 66 680 832 16 914 556 052 14,02 11,60 LPCM 2.0 1536Kbps (48kHz/16-bit)
  114. [/code]
  115.  
  116. [code]
  117.  
  118. DISC INFO:
  119.  
  120. Disc Title: BDROM
  121. Disc Size: 16 914 556 052 bytes
  122. Protection: AACS
  123. BD-Java: No
  124. BDInfo: 0.5.6
  125.  
  126. PLAYLIST REPORT:
  127.  
  128. Name: 00002.MPLS
  129. Length: 0:00:38 (h:m:s)
  130. Size: 66 680 832 bytes
  131. Total Bitrate: 14,02 Mbps
  132.  
  133. VIDEO:
  134.  
  135. Codec Bitrate Description
  136. ----- ------- -----------
  137. MPEG-4 AVC Video 11601 kbps 1080i / 29,970 fps / 16:9 / High Profile 4.1
  138.  
  139. AUDIO:
  140.  
  141. Codec Language Bitrate Description
  142. ----- -------- ------- -----------
  143. LPCM Audio Japanese 1536 kbps 2.0 / 48 kHz / 1536 kbps / 16-bit
  144.  
  145. FILES:
  146.  
  147. Name Time In Length Size Total Bitrate
  148. ---- ------- ------ ---- -------------
  149. 00003.M2TS 0:00:00.000 0:00:22.021 23 218 176 8 435
  150. 00002.M2TS 0:00:22.021 0:00:16.015 43 462 656 21 710
  151.  
  152. CHAPTERS:
  153.  
  154. Number Time In Length Avg Video Rate Max 1-Sec Rate Max 1-Sec Time Max 5-Sec Rate Max 5-Sec Time Max 10Sec Rate Max 10Sec Time Avg Frame Size Max Frame Size Max Frame Time
  155. ------ ------- ------ -------------- -------------- -------------- -------------- -------------- -------------- -------------- -------------- -------------- --------------
  156. 1 0:00:00.000 0:00:38.037 11 601 kbps 46 121 kbps 00:00:31.564 32 526 kbps 00:00:28.495 27 952 kbps 00:00:23.523 48 385 bytes 489 494 bytes 00:00:03.002
  157.  
  158. STREAM DIAGNOSTICS:
  159.  
  160. File PID Type Codec Language Seconds Bitrate Bytes Packets
  161. ---- --- ---- ----- -------- -------------- -------------- ------------- -----
  162. 00003.M2TS 4113 (0x1011) 0x1B AVC 21,889 6 281 17 184 086 93 744
  163. 00003.M2TS 4352 (0x1100) 0x80 LPCM jpn (Japanese) 21,889 1 552 4 246 420 26 430
  164. 00002.M2TS 4113 (0x1011) 0x1B AVC 15,883 19 128 37 974 761 206 633
  165. 00002.M2TS 4352 (0x1100) 0x80 LPCM jpn (Japanese) 15,883 1 555 3 087 692 19 218
  166.  
  167. [/code]
  168. <---- END FORUMS PASTE ---->
  169.  
  170. QUICK SUMMARY:
  171.  
  172. Disc Title: BDROM
  173. Disc Size: 16 914 556 052 bytes
  174. Protection: AACS
  175. BD-Java: No
  176. Playlist: 00002.MPLS
  177. Size: 66 680 832 bytes
  178. Length: 0:00:38
  179. Total Bitrate: 14,02 Mbps
  180. Video: MPEG-4 AVC Video / 11601 kbps / 1080i / 29,970 fps / 16:9 / High Profile 4.1
  181. Audio: Japanese / LPCM Audio / 2.0 / 48 kHz / 1536 kbps / 16-bit
  182.  
  183.  
  184.  
RAW Paste Data