iMN0

Designed.With.Love.2021.1080p.AMZN.WEB-DL.DDP2.0.H.264-TEPES.mkv

Jul 13th, 2021
47
Never
Not a member of Pastebin yet? Sign Up, it unlocks many cool features!
  1. General
  2. Unique ID : 35410497107470634322982091136061348302 (0x1AA3D04CD724C621C3958766080719CE)
  3. Complete name : Designed.With.Love.2021.1080p.AMZN.WEB-DL.DDP2.0.H.264-TEPES.mkv
  4. Format : Matroska
  5. Format version : Version 4
  6. File size : 5.84 GiB
  7. Duration : 1 h 28 min
  8. Overall bit rate : 9 421 kb/s
  9. Writing application : mkvmerge v59.0.0 ('Shining Star') 64-bit
  10. Writing library : libebml v1.4.2 + libmatroska v1.6.4
  11.  
  12. Video
  13. ID : 1
  14. Format : AVC
  15. Format/Info : Advanced Video Codec
  16. Format profile : High@L4
  17. Format settings : CABAC / 4 Ref Frames
  18. Format settings, CABAC : Yes
  19. Format settings, Reference frames : 4 frames
  20. Codec ID : V_MPEG4/ISO/AVC
  21. Duration : 1 h 28 min
  22. Bit rate mode : Constant
  23. Bit rate : 9 009 kb/s
  24. Nominal bit rate : 10 000 kb/s
  25. Width : 1 920 pixels
  26. Height : 1 080 pixels
  27. Display aspect ratio : 16:9
  28. Frame rate mode : Constant
  29. Frame rate : 23.976 (24000/1001) FPS
  30. Color space : YUV
  31. Chroma subsampling : 4:2:0
  32. Bit depth : 8 bits
  33. Scan type : Progressive
  34. Bits/(Pixel*Frame) : 0.181
  35. Stream size : 5.58 GiB (96%)
  36. Default : Yes
  37. Forced : No
  38. Color range : Limited
  39. Color primaries : BT.709
  40. Transfer characteristics : BT.709
  41. Matrix coefficients : BT.709
  42.  
  43. Audio
  44. ID : 2
  45. Format : E-AC-3
  46. Format/Info : Enhanced AC-3
  47. Commercial name : Dolby Digital Plus
  48. Codec ID : A_EAC3
  49. Duration : 1 h 28 min
  50. Bit rate mode : Constant
  51. Bit rate : 224 kb/s
  52. Channel(s) : 2 channels
  53. Channel layout : L R
  54. Sampling rate : 48.0 kHz
  55. Frame rate : 31.250 FPS (1536 SPF)
  56. Compression mode : Lossy
  57. Stream size : 142 MiB (2%)
  58. Language : English
  59. Service kind : Complete Main
  60. Default : Yes
  61. Forced : No
  62.  
  63. Text
  64. ID : 3
  65. Format : UTF-8
  66. Codec ID : S_TEXT/UTF8
  67. Codec ID/Info : UTF-8 Plain Text
  68. Title : English (SDH)
  69. Language : English
  70. Default : No
  71. Forced : No
RAW Paste Data