Henry_Kr

SSRoBA-2010

Oct 17th, 2019
105
Never
Not a member of Pastebin yet? Sign Up, it unlocks many cool features!
  1. Video
  2. ID : 1
  3. Format : AVC
  4. Format/Info : Advanced Video Codec
  5. Format profile : High@L4.1
  6. Format settings : CABAC / 4 Ref Frames
  7. Format settings, CABAC : Yes
  8. Format settings, Reference : 4 frames
  9. Muxing mode : Header stripping
  10. Codec ID : V_MPEG4/ISO/AVC
  11. Duration : 24 min 33 s
  12. Bit rate : 7 029 kb/s
  13. Width : 1 920 pixels
  14. Height : 1 080 pixels
  15. Display aspect ratio : 16:9
  16. Frame rate mode : Constant
  17. Frame rate : 23.976 (24000/1001) FPS
  18. Color space : YUV
  19. Chroma subsampling : 4:2:0
  20. Bit depth : 8 bits
  21. Scan type : Progressive
  22. Bits/(Pixel*Frame) : 0.141
  23. Stream size : 1.17 GiB (78%)
  24. Title : Superman.Shazam.The.Return.of.Black.Adam.2010.1080p.Bluray.[CartoonNOW]
  25. Writing library : x264 core 107 r1745 4785e8e
  26. Encoding settings : cabac=1 / ref=4 / deblock=1:0:0 / analyse=0x3:0x133 / me=umh / subme=8 / psy=1 / psy_rd=1.00:0.00 / mixed_ref=1 / me_range=16 / chroma_me=1 / trellis=1 / 8x8dct=1 / cqm=0 / deadzone=21,11 / fast_pskip=0 / chroma_qp_offset=-2 / threads=12 / sliced_threads=0 / nr=0 / decimate=1 / interlaced=0 / constrained_intra=0 / bframes=3 / b_pyramid=2 / b_adapt=1 / b_bias=0 / direct=1 / weightb=1 / open_gop=0 / weightp=2 / keyint=240 / keyint_min=24 / scenecut=40 / intra_refresh=0 / rc_lookahead=40 / rc=2pass / mbtree=1 / bitrate=7029 / ratetol=1.0 / qcomp=0.60 / qpmin=10 / qpmax=51 / qpstep=4 / cplxblur=20.0 / qblur=0.5 / ip_ratio=1.40 / aq=1:1.00
  27. Language : English
  28. Default : Yes
  29. Forced : No
  30. Statistics Tags Issue : mkvmerge v30.0.0 ('Interstellar') 32-bit 2019-04-19 09:48:06 / mkvmerge v5.8.0 ('No Sleep / Pillow') built on Sep 2 2012 15:37:04 2019-10-17 17:35:40
  31. FromStats_BitRate : 7029029
  32. FromStats_Duration : 00:24:26.465000000
  33. FromStats_FrameCount : 35160
  34. FromStats_StreamSize : 1288478242
  35.  
  36. Audio #1
  37. ID : 2
  38. Format : AC-3
  39. Format/Info : Audio Coding 3
  40. Commercial name : Dolby Digital
  41. Muxing mode : Header stripping
  42. Codec ID : A_AC3
  43. Duration : 24 min 33 s
  44. Bit rate mode : Constant
  45. Bit rate : 192 kb/s
  46. Channel(s) : 2 channels
  47. Channel layout : L R
  48. Sampling rate : 48.0 kHz
  49. Frame rate : 31.250 FPS (1536 SPF)
  50. Bit depth : 16 bits
  51. Compression mode : Lossy
  52. Stream size : 33.7 MiB (2%)
  53. Title : AC3 2.0
  54. Language : Portuguese
  55. Service kind : Complete Main
  56. Default : Yes
  57. Forced : No
  58. Statistics Tags Issue : mkvmerge v30.0.0 ('Interstellar') 32-bit 2019-04-19 09:48:06 / mkvmerge v5.8.0 ('No Sleep / Pillow') built on Sep 2 2012 15:37:04 2019-10-17 17:35:40
  59. FromStats_BitRate : 192000
  60. FromStats_Duration : 00:24:33.504000000
  61. FromStats_FrameCount : 46047
  62. FromStats_StreamSize : 35364096
  63.  
  64. Audio #2
  65. ID : 3
  66. Format : DTS
  67. Format/Info : Digital Theater Systems
  68. Muxing mode : Header stripping
  69. Codec ID : A_DTS
  70. Duration : 24 min 33 s
  71. Bit rate mode : Constant
  72. Bit rate : 1 509 kb/s
  73. Channel(s) : 6 channels
  74. Channel layout : C L R Ls Rs LFE
  75. Sampling rate : 48.0 kHz
  76. Frame rate : 93.750 FPS (512 SPF)
  77. Bit depth : 24 bits
  78. Compression mode : Lossy
  79. Stream size : 265 MiB (17%)
  80. Title : DTS 5.1
  81. Language : English
  82. Default : No
  83. Forced : No
  84. Statistics Tags Issue : mkvmerge v30.0.0 ('Interstellar') 32-bit 2019-04-19 09:48:06 / mkvmerge v5.8.0 ('No Sleep / Pillow') built on Sep 2 2012 15:37:04 2019-10-17 17:35:40
  85. FromStats_BitRate : 1508998
  86. FromStats_Duration : 00:24:25.740000000
  87. FromStats_FrameCount : 137413
  88. FromStats_StreamSize : 276474956
  89.  
  90. Text
  91. ID : 4
  92. Format : UTF-8
  93. Codec ID : S_TEXT/UTF8
  94. Codec ID/Info : UTF-8 Plain Text
  95. Title : Completa
  96. Language : Portuguese
  97. Default : No
  98. Forced : No
  99. Statistics Tags Issue : mkvmerge v30.0.0 ('Interstellar') 32-bit 2019-04-19 09:48:06 / mkvmerge v5.8.0 ('No Sleep / Pillow') built on Sep 2 2012 15:37:04 2019-10-17 17:35:40
  100. FromStats_BitRate : 39
  101. FromStats_Duration : 00:22:52.105000000
  102. FromStats_FrameCount : 196
  103. FromStats_StreamSize : 6820
RAW Paste Data