Guest User

Untitled

a guest
Oct 16th, 2019
110
Never
Not a member of Pastebin yet? Sign Up, it unlocks many cool features!
  1. General
  2. Unique ID : 257146898981455493094543087063319937114 (0xC174B0F815A7E2110F54F90A6323805A)
  3. Complete name : Penguin.Land.2019.1080p.WEB-DL.H264.AC3-EVO
  4. Format : Matroska
  5. Format version : Version 4
  6. File size : 2.61 GiB
  7. Duration : 1 h 10 min
  8. Overall bit rate : 5 335 kb/s
  9. Encoded date : UTC 2019-10-16 00:22:11
  10. Writing application : mkvmerge v35.0.0 ('All The Love In The World') 64-bit
  11. Writing library : libebml v1.3.9 + libmatroska v1.5.2
  12.  
  13. Video
  14. ID : 3
  15. Format : AVC
  16. Format/Info : Advanced Video Codec
  17. Format profile : High@L4
  18. Format settings : CABAC / 4 Ref Frames
  19. Format settings, CABAC : Yes
  20. Format settings, Reference frames : 4 frames
  21. Codec ID : V_MPEG4/ISO/AVC
  22. Duration : 1 h 10 min
  23. Bit rate : 5 141 kb/s
  24. Width : 1 912 pixels
  25. Height : 1 072 pixels
  26. Display aspect ratio : 16:9
  27. Frame rate mode : Constant
  28. Frame rate : 23.976 FPS
  29. Color space : YUV
  30. Chroma subsampling : 4:2:0
  31. Bit depth : 8 bits
  32. Scan type : Progressive
  33. Bits/(Pixel*Frame) : 0.105
  34. Stream size : 2.51 GiB (96%)
  35. Language : English
  36. Default : Yes
  37. Forced : No
  38. Color range : Limited
  39. Color primaries : BT.709
  40. Transfer characteristics : BT.709
  41. Matrix coefficients : BT.709
  42.  
  43. Audio
  44. ID : 2
  45. Format : AC-3
  46. Format/Info : Audio Coding 3
  47. Commercial name : Dolby Digital
  48. Codec ID : A_AC3
  49. Duration : 1 h 10 min
  50. Bit rate mode : Constant
  51. Bit rate : 192 kb/s
  52. Channel(s) : 2 channels
  53. Channel layout : L R
  54. Sampling rate : 48.0 kHz
  55. Frame rate : 31.250 FPS (1536 SPF)
  56. Bit depth : 16 bits
  57. Compression mode : Lossy
  58. Stream size : 96.2 MiB (4%)
  59. Service kind : Complete Main
  60. Default : Yes
  61. Forced : No
  62.  
  63. Text
  64. ID : 1
  65. Format : UTF-8
  66. Codec ID : S_TEXT/UTF8
  67. Codec ID/Info : UTF-8 Plain Text
  68. Duration : 1 h 9 min
  69. Bit rate : 108 b/s
  70. Count of elements : 1476
  71. Stream size : 54.9 KiB (0%)
  72. Language : English
  73. Default : Yes
  74. Forced : No
  75.  
  76. Menu
  77. 00:00:00.000 : en:1
  78. 00:03:58.000 : en:2
  79. 00:11:15.000 : en:3
  80. 00:18:21.000 : en:4
  81. 00:25:28.000 : en:5
  82. 00:31:50.000 : en:6
  83. 00:37:04.000 : en:7
  84. 00:42:20.000 : en:8
  85. 00:49:07.000 : en:9
  86. 00:56:13.000 : en:10
  87. 01:01:20.000 : en:11
  88. 01:07:18.000 : en:12
RAW Paste Data