TolstiyMob

Katanagatari Vol.10 Seito Hakari

Nov 22nd, 2011
99
Never
Not a member of Pastebin yet? Sign Up, it unlocks many cool features!
  1. Disc Title: BDROM
  2. Disc Size: 16 982 695 801 bytes
  3. Protection: AACS
  4. BD-Java: No
  5. BDInfo: 0.5.6
  6.  
  7. Notes:
  8.  
  9. BDINFO HOME:
  10. Cinema Squid
  11. http://www.cinemasquid.com/blu-ray/tools/bdinfo
  12.  
  13. INCLUDES FORUMS REPORT FOR:
  14. AVS Forum Blu-ray Audio and Video Specifications Thread
  15. http://www.avsforum.com/avs-vb/showthread.php?t=1155731
  16.  
  17.  
  18. ********************
  19. PLAYLIST: 00000.MPLS
  20. ********************
  21.  
  22. <--- BEGIN FORUMS PASTE --->
  23. [code]
  24. Total Video
  25. Title Codec Length Movie Size Disc Size Bitrate Bitrate Main Audio Track Secondary Audio Track
  26. ----- ------ ------- -------------- -------------- ------- ------- ------------------ ---------------------
  27. 00000.MPLS AVC 0:49:49 15 764 711 424 16 982 695 801 42,18 38,00 LPCM 2.0 2304Kbps (48kHz/24-bit)
  28. [/code]
  29.  
  30. [code]
  31.  
  32. DISC INFO:
  33.  
  34. Disc Title: BDROM
  35. Disc Size: 16 982 695 801 bytes
  36. Protection: AACS
  37. BD-Java: No
  38. BDInfo: 0.5.6
  39.  
  40. PLAYLIST REPORT:
  41.  
  42. Name: 00000.MPLS
  43. Length: 0:49:49 (h:m:s)
  44. Size: 15 764 711 424 bytes
  45. Total Bitrate: 42,18 Mbps
  46.  
  47. VIDEO:
  48.  
  49. Codec Bitrate Description
  50. ----- ------- -----------
  51. MPEG-4 AVC Video 37998 kbps 1080p / 23,976 fps / 16:9 / High Profile 4.1
  52.  
  53. AUDIO:
  54.  
  55. Codec Language Bitrate Description
  56. ----- -------- ------- -----------
  57. LPCM Audio Japanese 2304 kbps 2.0 / 48 kHz / 2304 kbps / 24-bit
  58.  
  59. FILES:
  60.  
  61. Name Time In Length Size Total Bitrate
  62. ---- ------- ------ ---- -------------
  63. 00000.M2TS 0:00:00.000 0:49:49.987 15 764 711 424 42 180
  64.  
  65. CHAPTERS:
  66.  
  67. Number Time In Length Avg Video Rate Max 1-Sec Rate Max 1-Sec Time Max 5-Sec Rate Max 5-Sec Time Max 10Sec Rate Max 10Sec Time Avg Frame Size Max Frame Size Max Frame Time
  68. ------ ------- ------ -------------- -------------- -------------- -------------- -------------- -------------- -------------- -------------- -------------- --------------
  69. 1 0:00:00.000 0:01:32.008 38 950 kbps 42 279 kbps 00:01:14.616 40 323 kbps 00:01:05.064 39 847 kbps 00:01:02.645 202 978 bytes 536 274 bytes 00:01:12.655
  70. 2 0:01:32.008 0:01:29.964 38 259 kbps 43 472 kbps 00:02:33.069 40 355 kbps 00:02:29.149 39 993 kbps 00:01:47.357 199 464 bytes 640 453 bytes 00:02:34.654
  71. 3 0:03:01.973 0:12:51.979 37 908 kbps 45 215 kbps 00:13:40.986 40 993 kbps 00:13:36.982 40 129 kbps 00:10:53.361 197 633 bytes 641 064 bytes 00:09:20.226
  72. 4 0:15:53.953 0:09:01.958 38 677 kbps 45 871 kbps 00:18:52.005 40 496 kbps 00:20:05.495 40 073 kbps 00:21:22.990 201 643 bytes 641 034 bytes 00:15:54.953
  73. 5 0:24:55.911 0:12:03.013 38 228 kbps 46 457 kbps 00:34:27.523 40 473 kbps 00:32:19.562 40 143 kbps 00:26:16.116 199 301 bytes 641 021 bytes 00:30:04.511
  74. 6 0:36:58.925 0:10:42.016 37 836 kbps 44 146 kbps 00:44:11.065 40 589 kbps 00:44:20.908 40 163 kbps 00:38:39.734 197 262 bytes 641 070 bytes 00:47:25.342
  75. 7 0:47:40.941 0:01:29.964 37 814 kbps 41 020 kbps 00:49:08.987 38 576 kbps 00:48:09.428 38 231 kbps 00:48:05.340 197 143 bytes 640 986 bytes 00:48:03.964
  76. 8 0:49:10.906 0:00:37.078 27 689 kbps 43 006 kbps 00:49:35.055 40 419 kbps 00:49:17.120 39 683 kbps 00:49:12.115 144 360 bytes 639 428 bytes 00:49:28.382
  77. 9 0:49:47.984 0:00:02.002 2 001 kbps 2 005 kbps 00:49:48.944 0 kbps 00:00:00.000 0 kbps 00:00:00.000 10 654 bytes 208 334 bytes 00:49:49.945
  78.  
  79. STREAM DIAGNOSTICS:
  80.  
  81. File PID Type Codec Language Seconds Bitrate Bytes Packets
  82. ---- --- ---- ----- -------- -------------- -------------- ------------- -----
  83. 00000.M2TS 4113 (0x1011) 0x1B AVC 2989,820 38 000 14 201 760 246 77 225 308
  84. 00000.M2TS 4352 (0x1100) 0x80 LPCM jpn (Japanese) 2989,820 2 310 863 218 868 4 782 376
  85.  
  86. [/code]
  87. <---- END FORUMS PASTE ---->
  88.  
  89. QUICK SUMMARY:
  90.  
  91. Disc Title: BDROM
  92. Disc Size: 16 982 695 801 bytes
  93. Protection: AACS
  94. BD-Java: No
  95. Playlist: 00000.MPLS
  96. Size: 15 764 711 424 bytes
  97. Length: 0:49:49
  98. Total Bitrate: 42,18 Mbps
  99. Video: MPEG-4 AVC Video / 37998 kbps / 1080p / 23,976 fps / 16:9 / High Profile 4.1
  100. Audio: Japanese / LPCM Audio / 2.0 / 48 kHz / 2304 kbps / 24-bit
  101.  
  102.  
  103. ********************
  104. PLAYLIST: 00002.MPLS
  105. ********************
  106.  
  107. <--- BEGIN FORUMS PASTE --->
  108. [code]
  109. Total Video
  110. Title Codec Length Movie Size Disc Size Bitrate Bitrate Main Audio Track Secondary Audio Track
  111. ----- ------ ------- -------------- -------------- ------- ------- ------------------ ---------------------
  112. 00002.MPLS AVC 0:00:38 66 680 832 16 982 695 801 14,02 11,60 LPCM 2.0 1536Kbps (48kHz/16-bit)
  113. [/code]
  114.  
  115. [code]
  116.  
  117. DISC INFO:
  118.  
  119. Disc Title: BDROM
  120. Disc Size: 16 982 695 801 bytes
  121. Protection: AACS
  122. BD-Java: No
  123. BDInfo: 0.5.6
  124.  
  125. PLAYLIST REPORT:
  126.  
  127. Name: 00002.MPLS
  128. Length: 0:00:38 (h:m:s)
  129. Size: 66 680 832 bytes
  130. Total Bitrate: 14,02 Mbps
  131.  
  132. VIDEO:
  133.  
  134. Codec Bitrate Description
  135. ----- ------- -----------
  136. MPEG-4 AVC Video 11601 kbps 1080i / 29,970 fps / 16:9 / High Profile 4.1
  137.  
  138. AUDIO:
  139.  
  140. Codec Language Bitrate Description
  141. ----- -------- ------- -----------
  142. LPCM Audio Japanese 1536 kbps 2.0 / 48 kHz / 1536 kbps / 16-bit
  143.  
  144. FILES:
  145.  
  146. Name Time In Length Size Total Bitrate
  147. ---- ------- ------ ---- -------------
  148. 00003.M2TS 0:00:00.000 0:00:22.021 23 218 176 8 435
  149. 00002.M2TS 0:00:22.021 0:00:16.015 43 462 656 21 710
  150.  
  151. CHAPTERS:
  152.  
  153. Number Time In Length Avg Video Rate Max 1-Sec Rate Max 1-Sec Time Max 5-Sec Rate Max 5-Sec Time Max 10Sec Rate Max 10Sec Time Avg Frame Size Max Frame Size Max Frame Time
  154. ------ ------- ------ -------------- -------------- -------------- -------------- -------------- -------------- -------------- -------------- -------------- --------------
  155. 1 0:00:00.000 0:00:38.037 11 601 kbps 46 121 kbps 00:00:31.564 32 526 kbps 00:00:28.495 27 952 kbps 00:00:23.523 48 385 bytes 489 494 bytes 00:00:03.002
  156.  
  157. STREAM DIAGNOSTICS:
  158.  
  159. File PID Type Codec Language Seconds Bitrate Bytes Packets
  160. ---- --- ---- ----- -------- -------------- -------------- ------------- -----
  161. 00003.M2TS 4113 (0x1011) 0x1B AVC 21,889 6 281 17 184 086 93 744
  162. 00003.M2TS 4352 (0x1100) 0x80 LPCM jpn (Japanese) 21,889 1 552 4 246 420 26 430
  163. 00002.M2TS 4113 (0x1011) 0x1B AVC 15,883 19 128 37 974 761 206 633
  164. 00002.M2TS 4352 (0x1100) 0x80 LPCM jpn (Japanese) 15,883 1 555 3 087 692 19 218
  165.  
  166. [/code]
  167. <---- END FORUMS PASTE ---->
  168.  
  169. QUICK SUMMARY:
  170.  
  171. Disc Title: BDROM
  172. Disc Size: 16 982 695 801 bytes
  173. Protection: AACS
  174. BD-Java: No
  175. Playlist: 00002.MPLS
  176. Size: 66 680 832 bytes
  177. Length: 0:00:38
  178. Total Bitrate: 14,02 Mbps
  179. Video: MPEG-4 AVC Video / 11601 kbps / 1080i / 29,970 fps / 16:9 / High Profile 4.1
  180. Audio: Japanese / LPCM Audio / 2.0 / 48 kHz / 1536 kbps / 16-bit
  181.  
RAW Paste Data