seleZennet

Untitled

Mar 19th, 2020
115
Never
Not a member of Pastebin yet? Sign Up, it unlocks many cool features!
  1. General
  2. Unique ID : 147604494730275219250292066044340462073 (0x6F0B97753DE93388FEFDC0FD0565E1F9)
  3. Complete name : E:\Video111\A.Beautiful.Day.in.the.Neighborhood.2019.BDRip.1080p.seleZen.mkv
  4. Format : Matroska
  5. Format version : Version 4
  6. File size : 13.3 GiB
  7. Duration : 1 h 48 min
  8. Overall bit rate : 17.5 Mb/s
  9. Movie name : A Beautiful Day in the Neighborhood 2019 from селезень
  10. Encoded date : UTC 2020-03-19 06:38:22
  11. Writing application : mkvmerge v40.0.0 ('Old Town Road + Pony') 64-bit
  12. Writing library : libebml v1.3.9 + libmatroska v1.5.2
  13.  
  14. Video
  15. ID : 1
  16. Format : AVC
  17. Format/Info : Advanced Video Codec
  18. Format profile : High@L4.1
  19. Format settings : CABAC / 4 Ref Frames
  20. Format settings, CABAC : Yes
  21. Format settings, Reference : 4 frames
  22. Codec ID : V_MPEG4/ISO/AVC
  23. Duration : 1 h 48 min
  24. Bit rate : 15.8 Mb/s
  25. Width : 1 920 pixels
  26. Height : 1 038 pixels
  27. Display aspect ratio : 1.85:1
  28. Frame rate mode : Constant
  29. Frame rate : 23.976 (24000/1001) FPS
  30. Color space : YUV
  31. Chroma subsampling : 4:2:0
  32. Bit depth : 8 bits
  33. Scan type : Progressive
  34. Bits/(Pixel*Frame) : 0.331
  35. Stream size : 12.0 GiB (90%)
  36. Title : LoRD
  37. Writing library : x264 core 159 r2991+49 ~ LoRD
  38. Encoding settings : cabac=1 / ref=4 / deblock=1:-3:-3 / analyse=0x3:0x133 / me=umh / subme=10 / psy=1 / fade_compensate=0.00 / psy_rd=1.08:0.00 / mixed_ref=1 / me_range=32 / chroma_me=1 / trellis=2 / 8x8dct=1 / cqm=0 / deadzone=21,11 / fast_pskip=0 / chroma_qp_offset=-2 / threads=12 / lookahead_threads=2 / sliced_threads=0 / nr=0 / decimate=0 / interlaced=0 / bluray_compat=0 / constrained_intra=0 / fgo=0 / bframes=8 / b_pyramid=2 / b_adapt=2 / b_bias=0 / direct=3 / weightb=1 / open_gop=0 / weightp=2 / keyint=250 / keyint_min=23 / scenecut=40 / intra_refresh=0 / rc_lookahead=60 / rc=2pass / mbtree=0 / bitrate=15800 / ratetol=1.0 / qcomp=0.62 / qpmin=0:0:0 / qpmax=69:69:69 / qpstep=4 / cplxblur=20.0 / qblur=0.5 / vbv_maxrate=62500 / vbv_bufsize=78125 / nal_hrd=none / filler=0 / ip_ratio=1.28 / pb_ratio=1.20 / aq=3:0.72 / aq-sensitivity=10.00 / aq-factor=1.00:1.00:1.00 / aq2=0 / aq3=0
  39. Language : English
  40. Default : Yes
  41. Forced : No
  42.  
  43. Audio #1
  44. ID : 2
  45. Format : AC-3
  46. Format/Info : Audio Coding 3
  47. Commercial name : Dolby Digital
  48. Codec ID : A_AC3
  49. Duration : 1 h 48 min
  50. Bit rate mode : Constant
  51. Bit rate : 384 kb/s
  52. Channel(s) : 6 channels
  53. Channel layout : L R C LFE Ls Rs
  54. Sampling rate : 48.0 kHz
  55. Frame rate : 31.250 FPS (1536 SPF)
  56. Compression mode : Lossy
  57. Stream size : 299 MiB (2%)
  58. Title : MVO [iTunes]
  59. Language : Russian
  60. Service kind : Complete Main
  61. Default : Yes
  62. Forced : Yes
  63.  
  64. Audio #2
  65. ID : 3
  66. Format : AC-3
  67. Format/Info : Audio Coding 3
  68. Commercial name : Dolby Digital
  69. Codec ID : A_AC3
  70. Duration : 1 h 48 min
  71. Bit rate mode : Constant
  72. Bit rate : 640 kb/s
  73. Channel(s) : 6 channels
  74. Channel layout : L R C LFE Ls Rs
  75. Sampling rate : 48.0 kHz
  76. Frame rate : 31.250 FPS (1536 SPF)
  77. Compression mode : Lossy
  78. Stream size : 498 MiB (4%)
  79. Title : AVO [Nazarov]
  80. Language : Russian
  81. Service kind : Complete Main
  82. Default : No
  83. Forced : No
  84.  
  85. Audio #3
  86. ID : 4
  87. Format : AC-3
  88. Format/Info : Audio Coding 3
  89. Commercial name : Dolby Digital
  90. Codec ID : A_AC3
  91. Duration : 1 h 48 min
  92. Bit rate mode : Constant
  93. Bit rate : 640 kb/s
  94. Channel(s) : 6 channels
  95. Channel layout : L R C LFE Ls Rs
  96. Sampling rate : 48.0 kHz
  97. Frame rate : 31.250 FPS (1536 SPF)
  98. Compression mode : Lossy
  99. Stream size : 498 MiB (4%)
  100. Title : Original
  101. Language : English
  102. Service kind : Complete Main
  103. Default : No
  104. Forced : No
  105.  
  106. Text #1
  107. ID : 5
  108. Format : UTF-8
  109. Codec ID : S_TEXT/UTF8
  110. Codec ID/Info : UTF-8 Plain Text
  111. Duration : 1 h 47 min
  112. Bit rate : 8 b/s
  113. Count of elements : 105
  114. Stream size : 6.62 KiB (0%)
  115. Title : Forced
  116. Language : Russian
  117. Default : Yes
  118. Forced : Yes
  119.  
  120. Text #2
  121. ID : 6
  122. Format : UTF-8
  123. Codec ID : S_TEXT/UTF8
  124. Codec ID/Info : UTF-8 Plain Text
  125. Duration : 1 h 47 min
  126. Bit rate : 80 b/s
  127. Count of elements : 1262
  128. Stream size : 63.9 KiB (0%)
  129. Title : Full
  130. Language : Russian
  131. Default : No
  132. Forced : No
  133.  
  134. Text #3
  135. ID : 7
  136. Format : UTF-8
  137. Codec ID : S_TEXT/UTF8
  138. Codec ID/Info : UTF-8 Plain Text
  139. Duration : 1 h 47 min
  140. Bit rate : 79 b/s
  141. Count of elements : 1261
  142. Stream size : 62.5 KiB (0%)
  143. Title : Full
  144. Language : Ukrainian
  145. Default : No
  146. Forced : No
  147.  
  148. Text #4
  149. ID : 8
  150. Format : UTF-8
  151. Codec ID : S_TEXT/UTF8
  152. Codec ID/Info : UTF-8 Plain Text
  153. Duration : 1 h 43 min
  154. Bit rate : 54 b/s
  155. Count of elements : 1297
  156. Stream size : 41.6 KiB (0%)
  157. Title : Full
  158. Language : English
  159. Default : No
  160. Forced : No
  161.  
  162. Text #5
  163. ID : 9
  164. Format : UTF-8
  165. Codec ID : S_TEXT/UTF8
  166. Codec ID/Info : UTF-8 Plain Text
  167. Duration : 1 h 47 min
  168. Bit rate : 55 b/s
  169. Count of elements : 1389
  170. Stream size : 43.8 KiB (0%)
  171. Title : SDH
  172. Language : English
  173. Default : No
  174. Forced : No
  175.  
  176. Text #6
  177. ID : 10
  178. Format : UTF-8
  179. Codec ID : S_TEXT/UTF8
  180. Codec ID/Info : UTF-8 Plain Text
  181. Duration : 1 h 47 min
  182. Bit rate : 46 b/s
  183. Count of elements : 1259
  184. Stream size : 37.1 KiB (0%)
  185. Title : Full
  186. Language : French
  187. Default : No
  188. Forced : No
  189.  
  190. Menu
  191. 00:00:00.000 : en:Chapter 01
  192. 00:07:00.128 : en:Chapter 02
  193. 00:14:17.231 : en:Chapter 03
  194. 00:20:55.838 : en:Chapter 04
  195. 00:30:32.748 : en:Chapter 05
  196. 00:37:31.040 : en:Chapter 06
  197. 00:45:50.581 : en:Chapter 07
  198. 00:50:13.636 : en:Chapter 08
  199. 00:57:34.451 : en:Chapter 09
  200. 01:03:19.462 : en:Chapter 10
  201. 01:07:26.834 : en:Chapter 11
  202. 01:10:36.983 : en:Chapter 12
  203. 01:14:31.133 : en:Chapter 13
  204. 01:17:33.482 : en:Chapter 14
  205. 01:28:54.621 : en:Chapter 15
  206. 01:37:27.925 : en:Chapter 16
RAW Paste Data

Adblocker detected! Please consider disabling it...

We've detected AdBlock Plus or some other adblocking software preventing Pastebin.com from fully loading.

We don't have any obnoxious sound, or popup ads, we actively block these annoying types of ads!

Please add Pastebin.com to your ad blocker whitelist or disable your adblocking software.

×