GrabHD

Untitled

Feb 27th, 2020
103
Never
Not a member of Pastebin yet? Sign Up, it unlocks many cool features!
  1. General
  2. Unique ID : 185735439280093718191893996708652408439 (0x8BBB582C31A1996F8030D4305EF45E77)
  3. Complete name : D:Dream House (2011) Open Matte 1080p.mkv
  4. Format : Matroska
  5. Format version : Version 4
  6. File size : 5.94 GiB
  7. Duration : 1 h 31 min
  8. Overall bit rate : 9 251 kb/s
  9. Encoded date : UTC 2020-02-26 16:25:05
  10. Writing application : mkvmerge v8.3.0 ('Over the Horizon') 32bit
  11. Writing library : libebml v1.3.1 + libmatroska v1.4.2
  12.  
  13. Video
  14. ID : 1
  15. Format : AVC
  16. Format/Info : Advanced Video Codec
  17. Format profile : High@L4
  18. Format settings : CABAC / 4 Ref Frames
  19. Format settings, CABAC : Yes
  20. Format settings, Reference : 4 frames
  21. Codec ID : V_MPEG4/ISO/AVC
  22. Duration : 1 h 31 min
  23. Bit rate : 6 723 kb/s
  24. Width : 1 920 pixels
  25. Height : 1 080 pixels
  26. Display aspect ratio : 16:9
  27. Frame rate mode : Constant
  28. Frame rate : 23.976 (24000/1001) FPS
  29. Color space : YUV
  30. Chroma subsampling : 4:2:0
  31. Bit depth : 8 bits
  32. Scan type : Progressive
  33. Bits/(Pixel*Frame) : 0.135
  34. Stream size : 4.31 GiB (73%)
  35. Default : Yes
  36. Forced : No
  37. Color range : Limited
  38. Color primaries : BT.709
  39. Transfer characteristics : BT.709
  40. Matrix coefficients : BT.709
  41.  
  42. Audio #1
  43. ID : 2
  44. Format : DTS
  45. Format/Info : Digital Theater Systems
  46. Codec ID : A_DTS
  47. Duration : 1 h 31 min
  48. Bit rate mode : Constant
  49. Bit rate : 1 510 kb/s
  50. Channel(s) : 6 channels
  51. Channel layout : C L R Ls Rs LFE
  52. Sampling rate : 48.0 kHz
  53. Frame rate : 93.750 FPS (512 SPF)
  54. Bit depth : 24 bits
  55. Compression mode : Lossy
  56. Stream size : 992 MiB (16%)
  57. Title : DUB
  58. Language : Russian
  59. Default : Yes
  60. Forced : No
  61.  
  62. Audio #2
  63. ID : 3
  64. Format : AC-3
  65. Format/Info : Audio Coding 3
  66. Commercial name : Dolby Digital
  67. Codec ID : A_AC3
  68. Duration : 1 h 31 min
  69. Bit rate mode : Constant
  70. Bit rate : 192 kb/s
  71. Channel(s) : 2 channels
  72. Channel layout : L R
  73. Sampling rate : 48.0 kHz
  74. Frame rate : 31.250 FPS (1536 SPF)
  75. Bit depth : 16 bits
  76. Compression mode : Lossy
  77. Stream size : 126 MiB (2%)
  78. Title : MVO Первый канал
  79. Language : Russian
  80. Service kind : Complete Main
  81. Default : No
  82. Forced : No
  83.  
  84. Audio #3
  85. ID : 4
  86. Format : AC-3
  87. Format/Info : Audio Coding 3
  88. Commercial name : Dolby Digital
  89. Codec ID : A_AC3
  90. Duration : 1 h 31 min
  91. Bit rate mode : Constant
  92. Bit rate : 192 kb/s
  93. Channel(s) : 2 channels
  94. Channel layout : L R
  95. Sampling rate : 48.0 kHz
  96. Frame rate : 31.250 FPS (1536 SPF)
  97. Bit depth : 16 bits
  98. Compression mode : Lossy
  99. Stream size : 126 MiB (2%)
  100. Title : AVO Иванов
  101. Language : Russian
  102. Service kind : Complete Main
  103. Default : No
  104. Forced : No
  105.  
  106. Audio #4
  107. ID : 5
  108. Format : E-AC-3
  109. Format/Info : Enhanced AC-3
  110. Commercial name : Dolby Digital Plus
  111. Codec ID : A_EAC3
  112. Duration : 1 h 31 min
  113. Bit rate mode : Constant
  114. Bit rate : 640 kb/s
  115. Channel(s) : 6 channels
  116. Channel layout : L R C LFE Ls Rs
  117. Sampling rate : 48.0 kHz
  118. Frame rate : 31.250 FPS (1536 SPF)
  119. Compression mode : Lossy
  120. Stream size : 420 MiB (7%)
  121. Language : English
  122. Service kind : Complete Main
  123. Default : No
  124. Forced : No
  125.  
  126. Text #1
  127. ID : 6
  128. Format : UTF-8
  129. Codec ID : S_TEXT/UTF8
  130. Codec ID/Info : UTF-8 Plain Text
  131. Duration : 59 s 933 ms
  132. Bit rate : 177 b/s
  133. Count of elements : 22
  134. Stream size : 1.30 KiB (0%)
  135. Title : Forced
  136. Language : Russian
  137. Default : Yes
  138. Forced : No
  139.  
  140. Text #2
  141. ID : 7
  142. Format : UTF-8
  143. Codec ID : S_TEXT/UTF8
  144. Codec ID/Info : UTF-8 Plain Text
  145. Duration : 1 h 24 min
  146. Bit rate : 66 b/s
  147. Count of elements : 988
  148. Stream size : 41.2 KiB (0%)
  149. Title : Full
  150. Language : Russian
  151. Default : No
  152. Forced : No
  153.  
  154. Text #3
  155. ID : 8
  156. Format : UTF-8
  157. Codec ID : S_TEXT/UTF8
  158. Codec ID/Info : UTF-8 Plain Text
  159. Duration : 1 h 23 min
  160. Bit rate : 41 b/s
  161. Count of elements : 982
  162. Stream size : 25.3 KiB (0%)
  163. Language : English
  164. Default : No
  165. Forced : No
RAW Paste Data