SHARE
TWEET

Untitled

a guest Apr 27th, 2016 66 Never
Not a member of Pastebin yet? Sign Up, it unlocks many cool features!
  1. ORIGINAL:
  2. General
  3. Complete name               : D:\WEB\VIDEOS\__TEMP__\test.mp4
  4. Format                      : MPEG-4
  5. Format profile              : Base Media / Version 2
  6. Codec ID                    : mp42 (mp42/mp41)
  7. File size                   : 21.5 MiB
  8. Duration                    : 28s 240ms
  9. Overall bit rate mode       : Variable
  10. Overall bit rate            : 6 390 Kbps
  11. Encoded date                : UTC 2016-04-27 09:42:50
  12. Tagged date                 : UTC 2016-04-27 09:42:51
  13. ©TIM                        : 00:00:13:13
  14. ©TSC                        : 25
  15. ©TSZ                        : 1
  16.  
  17. Video
  18. ID                          : 1
  19. Format                      : AVC
  20. Format/Info                 : Advanced Video Codec
  21. Format profile              : Main@L4.2
  22. Format settings, CABAC      : Yes
  23. Format settings, ReFrames   : 3 frames
  24. Codec ID                    : avc1
  25. Codec ID/Info               : Advanced Video Coding
  26. Duration                    : 28s 240ms
  27. Bit rate                    : 6 190 Kbps
  28. Width                       : 1 920 pixels
  29. Height                      : 1 080 pixels
  30. Display aspect ratio        : 16:9
  31. Frame rate mode             : Constant
  32. Frame rate                  : 25.000 fps
  33. Standard                    : PAL
  34. Color space                 : YUV
  35. Chroma subsampling          : 4:2:0
  36. Bit depth                   : 8 bits
  37. Scan type                   : Progressive
  38. Bits/(Pixel*Frame)          : 0.119
  39. Stream size                 : 20.8 MiB (97%)
  40. Language                    : English
  41. Encoded date                : UTC 2016-04-27 09:42:50
  42. Tagged date                 : UTC 2016-04-27 09:42:50
  43. Color range                 : Limited
  44.  
  45. Audio
  46. ID                          : 2
  47. Format                      : AAC
  48. Format/Info                 : Advanced Audio Codec
  49. Format profile              : LC
  50. Codec ID                    : 40
  51. Duration                    : 28s 240ms
  52. Source duration             : 28s 288ms
  53. Bit rate mode               : Variable
  54. Bit rate                    : 192 Kbps
  55. Maximum bit rate            : 245 Kbps
  56. Channel(s)                  : 2 channels
  57. Channel positions           : Front: L R
  58. Sampling rate               : 48.0 KHz
  59. Frame rate                  : 46.875 fps (1024 spf)
  60. Compression mode            : Lossy
  61. Stream size                 : 653 KiB (3%)
  62. Source stream size          : 654 KiB (3%)
  63. Language                    : English
  64. Encoded date                : UTC 2016-04-27 09:42:50
  65. Tagged date                 : UTC 2016-04-27 09:42:50
  66. mdhd_Duration               : 28288
  67.  
  68. -------------------------------------------------------------------------------------------
  69. RESULT:
  70. General
  71. Complete name               : D:\WEB\VIDEOS\__TEMP__\result.mp4
  72. Format                      : MPEG-4
  73. Format profile              : Base Media
  74. Codec ID                    : isom (isom/iso2/avc1/mp41)
  75. File size                   : 20.7 MiB
  76. Duration                    : 28s 320ms
  77. Overall bit rate            : 6 142 Kbps
  78. Writing application         : Lavf57.34.103
  79.  
  80. Video
  81. ID                          : 1
  82. Format                      : AVC
  83. Format/Info                 : Advanced Video Codec
  84. Format profile              : High@L4
  85. Format settings, CABAC      : Yes
  86. Format settings, ReFrames   : 4 frames
  87. Codec ID                    : avc1
  88. Codec ID/Info               : Advanced Video Coding
  89. Duration                    : 28s 320ms
  90. Bit rate                    : 6 000 Kbps
  91. Width                       : 1 920 pixels
  92. Height                      : 1 080 pixels
  93. Display aspect ratio        : 16:9
  94. Frame rate mode             : Constant
  95. Frame rate                  : 25.000 fps
  96. Color space                 : YUV
  97. Chroma subsampling          : 4:2:0
  98. Bit depth                   : 8 bits
  99. Scan type                   : Progressive
  100. Bits/(Pixel*Frame)          : 0.116
  101. Stream size                 : 20.3 MiB (98%)
  102. Writing library             : x264 core 148 r2694 3b70645
  103. Encoding settings           : cabac=1 / ref=3 / deblock=1:0:0 / analyse=0x3:0x113 / me=hex / subme=7 / psy=1 / psy_rd=1.00:0.00 / mixed_ref=1 / me_range=16 / chroma_me=1 / trellis=1 / 8x8dct=1 / cqm=0 / deadzone=21,11 / fast_pskip=1 / chroma_qp_offset=-2 / threads=18 / lookahead_threads=3 / sliced_threads=0 / nr=0 / decimate=1 / interlaced=0 / bluray_compat=0 / constrained_intra=0 / bframes=3 / b_pyramid=2 / b_adapt=1 / b_bias=0 / direct=1 / weightb=1 / open_gop=0 / weightp=2 / keyint=250 / keyint_min=25 / scenecut=40 / intra_refresh=0 / rc_lookahead=40 / rc=abr / mbtree=1 / bitrate=6000 / ratetol=1.0 / qcomp=0.60 / qpmin=0 / qpmax=69 / qpstep=4 / ip_ratio=1.40 / aq=1:1.00
  104.  
  105. Audio
  106. ID                          : 2
  107. Format                      : AAC
  108. Format/Info                 : Advanced Audio Codec
  109. Format profile              : LC
  110. Codec ID                    : 40
  111. Duration                    : 28s 310ms
  112. Bit rate mode               : Constant
  113. Bit rate                    : 128 Kbps
  114. Channel(s)                  : 2 channels
  115. Channel positions           : Front: L R
  116. Sampling rate               : 48.0 KHz
  117. Frame rate                  : 46.875 fps (1024 spf)
  118. Compression mode            : Lossy
  119. Stream size                 : 442 KiB (2%)
  120. Language                    : English
  121. Default                     : Yes
  122. Alternate group             : 1
RAW Paste Data
We use cookies for various purposes including analytics. By continuing to use Pastebin, you agree to our use of cookies as described in the Cookies Policy. OK, I Understand
 
Top