HYBRID_BEING

[Harunatsu] Hundred - 03 [720p AAC][FE2519DB].mkv

Jul 11th, 2016
64
Never
Not a member of Pastebin yet? Sign Up, it unlocks many cool features!
  1. General
  2. Unique ID : 197471357496332489140691309774574081387 (0x948F999D46C638C8B8E2C8591D8E556B)
  3. Complete name : [Harunatsu] Hundred - 03 [720p AAC][FE2519DB].mkv
  4. Format : Matroska
  5. Format version : Version 4 / Version 2
  6. File size : 439 MiB
  7. Duration : 23mn 54s
  8. Overall bit rate : 2 565 Kbps
  9. Encoded date : UTC 2016-05-28 02:30:33
  10. Writing application : mkvmerge v7.5.0 ('Glass Culture') 32bit built on Jan 4 2015 16:37:25
  11. Writing library : libebml v1.3.1 + libmatroska v1.4.2 / Lavf57.11.100
  12. Attachments : LAURENCBROWN.TTF / rosario.bold.ttf / Rosario-BoldItalic.otf / Bradley Hand ITC.TTF / Comfortaa-Bold.ttf
  13.  
  14. Video
  15. ID : 1
  16. Format : AVC
  17. Format/Info : Advanced Video Codec
  18. Format profile : High 4:4:4 Predictive@L4.2
  19. Format settings, CABAC : Yes
  20. Format settings, ReFrames : 9 frames
  21. Codec ID : V_MPEG4/ISO/AVC
  22. Duration : 23mn 54s
  23. Bit rate : 2 432 Kbps
  24. Width : 1 280 pixels
  25. Height : 720 pixels
  26. Display aspect ratio : 16:9
  27. Frame rate mode : Variable
  28. Frame rate : 23.976 (23976/1000) fps
  29. Color space : YUV
  30. Chroma subsampling : 4:4:4
  31. Bit depth : 10 bits
  32. Scan type : Progressive
  33. Bits/(Pixel*Frame) : 0.110
  34. Stream size : 416 MiB (95%)
  35. Title : 720p 10bit
  36. Writing library : x264 core 148 r2638 7599210
  37. Encoding settings : cabac=1 / ref=9 / deblock=1:1:1 / analyse=0x3:0x113 / me=umh / subme=8 / psy=1 / psy_rd=0.40:0.00 / mixed_ref=1 / me_range=16 / chroma_me=1 / trellis=1 / 8x8dct=1 / cqm=0 / deadzone=21,11 / fast_pskip=1 / chroma_qp_offset=4 / threads=3 / lookahead_threads=1 / sliced_threads=0 / nr=0 / decimate=1 / interlaced=0 / bluray_compat=0 / constrained_intra=0 / bframes=5 / b_pyramid=2 / b_adapt=2 / b_bias=0 / direct=3 / weightb=1 / open_gop=0 / weightp=2 / keyint=250 / keyint_min=23 / scenecut=40 / intra_refresh=0 / rc_lookahead=50 / rc=crf / mbtree=1 / crf=14.0 / qcomp=0.60 / qpmin=0 / qpmax=81 / qpstep=4 / ip_ratio=1.40 / aq=1:0.60
  38. Language : Japanese
  39. Default : Yes
  40. Forced : No
  41. Encoded date : UTC 2016-04-24 04:18:04
  42. HANDLER_NAME : GPAC ISO Video Handler
  43.  
  44. Audio
  45. ID : 2
  46. Format : AAC
  47. Format/Info : Advanced Audio Codec
  48. Format profile : LC
  49. Codec ID : A_AAC
  50. Duration : 23mn 54s
  51. Bit rate : 128 Kbps
  52. Channel(s) : 2 channels
  53. Channel positions : Front: L R
  54. Sampling rate : 48.0 KHz
  55. Frame rate : 46.875 fps (1024 spf)
  56. Compression mode : Lossy
  57. Stream size : 21.9 MiB (5%)
  58. Writing library : Lavc57.10.100 libvo_aacenc
  59. Language : Japanese
  60. Default : Yes
  61. Forced : No
  62. Encoded date : UTC 2016-04-24 05:30:38
  63. HANDLER_NAME : aac@GPAC0.5.1-DEV-rev4283
  64.  
  65. Text
  66. ID : 3
  67. Format : ASS
  68. Codec ID : S_TEXT/ASS
  69. Codec ID/Info : Advanced Sub Station Alpha
  70. Duration : 23mn 53s
  71. Bit rate : 152 bps
  72. Count of elements : 405
  73. Compression mode : Lossless
  74. Stream size : 26.7 KiB (0%)
  75. Title : Harunatsu
  76. Language : English
  77. Default : Yes
  78. Forced : No
  79.  
  80. Menu
  81. 00:00:00.000 : en:Prologue
  82. 00:03:18.000 : en:Opening
  83. 00:04:48.000 : en:Part A
  84. 00:10:02.000 : en:Part B
  85. 00:21:54.000 : en:Ending
  86. 00:23:19.000 : en:Epilogue
RAW Paste Data