Advertisement
yushiro

p.tobruk.bd.yus

Feb 4th, 2021
184
0
Never
Not a member of Pastebin yet? Sign Up, it unlocks many cool features!
text 19.10 KB | None | 0 0
  1. Disc Title: Tobruk
  2. Disc Label: p.tobruk.bd.yus
  3. Disc Size: 20,953,596,399 bytes
  4. Protection: AACS
  5. BDInfo: 0.7.5.5
  6.  
  7. Notes:
  8.  
  9. BDINFO HOME:
  10. Cinema Squid (old)
  11. http://www.cinemasquid.com/blu-ray/tools/bdinfo
  12. UniqProject GitHub (new)
  13. https://github.com/UniqProject/BDInfo
  14.  
  15. INCLUDES FORUMS REPORT FOR:
  16. AVS Forum Blu-ray Audio and Video Specifications Thread
  17. http://www.avsforum.com/avs-vb/showthread.php?t=1155731
  18.  
  19. WARNING: Report is incomplete because: Scan has not been run.
  20.  
  21. ********************
  22. PLAYLIST: 00003.MPLS
  23. ********************
  24.  
  25. <--- BEGIN FORUMS PASTE --->
  26. [code]
  27. Total Video
  28. Title Codec Length Movie Size Disc Size Bitrate Bitrate Main Audio Track Secondary Audio Track
  29. ----- ------ ------- -------------- -------------- ------- ------- ------------------ ---------------------
  30. 00003.MPLS AVC 1:49:24 0 20,953,596,399 0.00 0.00 LPCM 2.0 1536Kbps (48kHz/16-bit)
  31. [/code]
  32.  
  33. [code]
  34.  
  35. DISC INFO:
  36.  
  37. Disc Title: Tobruk
  38. Disc Label: p.tobruk.bd.yus
  39. Disc Size: 20,953,596,399 bytes
  40. Protection: AACS
  41. BDInfo: 0.7.5.5
  42.  
  43. PLAYLIST REPORT:
  44.  
  45. Name: 00003.MPLS
  46. Length: 1:49:24.541 (h:m:s.ms)
  47. Size: 0 bytes
  48. Total Bitrate: 0.00 Mbps
  49.  
  50. VIDEO:
  51.  
  52. Codec Bitrate Description
  53. ----- ------- -----------
  54. MPEG-4 AVC Video 0 kbps 1080p / 24 fps / 16:9 / High Profile 4.1
  55.  
  56. AUDIO:
  57.  
  58. Codec Language Bitrate Description
  59. ----- -------- ------- -----------
  60. LPCM Audio Spanish 1536 kbps 2.0 / 48 kHz / 1536 kbps / 16-bit
  61. LPCM Audio English 1536 kbps 2.0 / 48 kHz / 1536 kbps / 16-bit
  62.  
  63. SUBTITLES:
  64.  
  65. Codec Language Bitrate Description
  66. ----- -------- ------- -----------
  67. Presentation Graphics Spanish 0.000 kbps
  68. Presentation Graphics Spanish 0.000 kbps
  69. Presentation Graphics Spanish 0.000 kbps
  70.  
  71. FILES:
  72.  
  73. Name Time In Length Size Total Bitrate
  74. ---- ------- ------ ---- -------------
  75. 00005.M2TS 0:00:00.000 1:49:24.541 0 0
  76.  
  77. CHAPTERS:
  78.  
  79. Number Time In Length Avg Video Rate Max 1-Sec Rate Max 1-Sec Time Max 5-Sec Rate Max 5-Sec Time Max 10Sec Rate Max 10Sec Time Avg Frame Size Max Frame Size Max Frame Time
  80. ------ ------- ------ -------------- -------------- -------------- -------------- -------------- -------------- -------------- -------------- -------------- --------------
  81. 1 0:00:00.000 0:10:28.790 0 kbps 0 kbps 00:00:00.000 0 kbps 00:00:00.000 0 kbps 00:00:00.000 0 bytes 0 bytes 00:00:00.000
  82. 2 0:10:28.790 0:08:48.542 0 kbps 0 kbps 00:00:00.000 0 kbps 00:00:00.000 0 kbps 00:00:00.000 0 bytes 0 bytes 00:00:00.000
  83. 3 0:19:17.333 0:12:47.666 0 kbps 0 kbps 00:00:00.000 0 kbps 00:00:00.000 0 kbps 00:00:00.000 0 bytes 0 bytes 00:00:00.000
  84. 4 0:32:05.000 0:12:33.125 0 kbps 0 kbps 00:00:00.000 0 kbps 00:00:00.000 0 kbps 00:00:00.000 0 bytes 0 bytes 00:00:00.000
  85. 5 0:44:38.125 0:11:51.375 0 kbps 0 kbps 00:00:00.000 0 kbps 00:00:00.000 0 kbps 00:00:00.000 0 bytes 0 bytes 00:00:00.000
  86. 6 0:56:29.500 0:14:03.457 0 kbps 0 kbps 00:00:00.000 0 kbps 00:00:00.000 0 kbps 00:00:00.000 0 bytes 0 bytes 00:00:00.000
  87. 7 1:10:32.957 0:05:57.917 0 kbps 0 kbps 00:00:00.000 0 kbps 00:00:00.000 0 kbps 00:00:00.000 0 bytes 0 bytes 00:00:00.000
  88. 8 1:16:30.875 0:10:18.082 0 kbps 0 kbps 00:00:00.000 0 kbps 00:00:00.000 0 kbps 00:00:00.000 0 bytes 0 bytes 00:00:00.000
  89. 9 1:26:48.957 0:14:21.458 0 kbps 0 kbps 00:00:00.000 0 kbps 00:00:00.000 0 kbps 00:00:00.000 0 bytes 0 bytes 00:00:00.000
  90. 10 1:41:10.416 0:08:12.083 0 kbps 0 kbps 00:00:00.000 0 kbps 00:00:00.000 0 kbps 00:00:00.000 0 bytes 0 bytes 00:00:00.000
  91. 11 1:49:22.500 0:00:02.041 0 kbps 0 kbps 00:00:00.000 0 kbps 00:00:00.000 0 kbps 00:00:00.000 0 bytes 0 bytes 00:00:00.000
  92.  
  93. STREAM DIAGNOSTICS:
  94.  
  95. File PID Type Codec Language Seconds Bitrate Bytes Packets
  96. ---- --- ---- ----- -------- -------------- -------------- ------------- -----
  97. 00005.M2TS 4113 (0x1011) 0x1B AVC 0 0 0 0
  98. 00005.M2TS 4352 (0x1100) 0x80 LPCM spa (Spanish) 0 0 0 0
  99. 00005.M2TS 4353 (0x1101) 0x80 LPCM eng (English) 0 0 0 0
  100. 00005.M2TS 4608 (0x1200) 0x90 PGS spa (Spanish) 0 0 0 0
  101. 00005.M2TS 4609 (0x1201) 0x90 PGS spa (Spanish) 0 0 0 0
  102. 00005.M2TS 4610 (0x1202) 0x90 PGS spa (Spanish) 0 0 0 0
  103.  
  104. [/code]
  105. <---- END FORUMS PASTE ---->
  106.  
  107. QUICK SUMMARY:
  108.  
  109. Disc Title: Tobruk
  110. Disc Label: p.tobruk.bd.yus
  111. Disc Size: 20,953,596,399 bytes
  112. Protection: AACS
  113. Playlist: 00003.MPLS
  114. Size: 0 bytes
  115. Length: 1:49:24.541
  116. Total Bitrate: 0.00 Mbps
  117. Video: MPEG-4 AVC Video / 0 kbps / 1080p / 24 fps / 16:9 / High Profile 4.1
  118. Audio: Spanish / LPCM Audio / 2.0 / 48 kHz / 1536 kbps / 16-bit
  119. Audio: English / LPCM Audio / 2.0 / 48 kHz / 1536 kbps / 16-bit
  120. Subtitle: Spanish / 0.000 kbps
  121. Subtitle: Spanish / 0.000 kbps
  122. Subtitle: Spanish / 0.000 kbps
  123.  
  124.  
  125. ********************
  126. PLAYLIST: 00004.MPLS
  127. ********************
  128.  
  129. <--- BEGIN FORUMS PASTE --->
  130. [code]
  131. Total Video
  132. Title Codec Length Movie Size Disc Size Bitrate Bitrate Main Audio Track Secondary Audio Track
  133. ----- ------ ------- -------------- -------------- ------- ------- ------------------ ---------------------
  134. 00004.MPLS AVC 0:02:56 0 20,953,596,399 0.00 0.00 LPCM 2.0 1536Kbps (48kHz/16-bit)
  135. [/code]
  136.  
  137. [code]
  138.  
  139. DISC INFO:
  140.  
  141. Disc Title: Tobruk
  142. Disc Label: p.tobruk.bd.yus
  143. Disc Size: 20,953,596,399 bytes
  144. Protection: AACS
  145. BDInfo: 0.7.5.5
  146.  
  147. PLAYLIST REPORT:
  148.  
  149. Name: 00004.MPLS
  150. Length: 0:02:56.083 (h:m:s.ms)
  151. Size: 0 bytes
  152. Total Bitrate: 0.00 Mbps
  153.  
  154. VIDEO:
  155.  
  156. Codec Bitrate Description
  157. ----- ------- -----------
  158. MPEG-4 AVC Video 0 kbps 1080p / 24 fps / 16:9 / High Profile 4.1
  159.  
  160. AUDIO:
  161.  
  162. Codec Language Bitrate Description
  163. ----- -------- ------- -----------
  164. LPCM Audio English 1536 kbps 2.0 / 48 kHz / 1536 kbps / 16-bit
  165.  
  166. FILES:
  167.  
  168. Name Time In Length Size Total Bitrate
  169. ---- ------- ------ ---- -------------
  170. 00006.M2TS 0:00:00.000 0:02:54.000 0 0
  171. 00001.M2TS 0:02:54.000 0:00:02.083 0 0
  172.  
  173. CHAPTERS:
  174.  
  175. Number Time In Length Avg Video Rate Max 1-Sec Rate Max 1-Sec Time Max 5-Sec Rate Max 5-Sec Time Max 10Sec Rate Max 10Sec Time Avg Frame Size Max Frame Size Max Frame Time
  176. ------ ------- ------ -------------- -------------- -------------- -------------- -------------- -------------- -------------- -------------- -------------- --------------
  177. 1 0:00:00.000 0:02:54.000 0 kbps 0 kbps 00:00:00.000 0 kbps 00:00:00.000 0 kbps 00:00:00.000 0 bytes 0 bytes 00:00:00.000
  178. 2 0:02:54.000 0:00:02.083 0 kbps 0 kbps 00:00:00.000 0 kbps 00:00:00.000 0 kbps 00:00:00.000 0 bytes 0 bytes 00:00:00.000
  179.  
  180. STREAM DIAGNOSTICS:
  181.  
  182. File PID Type Codec Language Seconds Bitrate Bytes Packets
  183. ---- --- ---- ----- -------- -------------- -------------- ------------- -----
  184. 00006.M2TS 4113 (0x1011) 0x1B AVC 0 0 0 0
  185. 00006.M2TS 4352 (0x1100) 0x80 LPCM eng (English) 0 0 0 0
  186. 00001.M2TS 4113 (0x1011) 0x1B AVC 0 0 0 0
  187.  
  188. [/code]
  189. <---- END FORUMS PASTE ---->
  190.  
  191. QUICK SUMMARY:
  192.  
  193. Disc Title: Tobruk
  194. Disc Label: p.tobruk.bd.yus
  195. Disc Size: 20,953,596,399 bytes
  196. Protection: AACS
  197. Playlist: 00004.MPLS
  198. Size: 0 bytes
  199. Length: 0:02:56.083
  200. Total Bitrate: 0.00 Mbps
  201. Video: MPEG-4 AVC Video / 0 kbps / 1080p / 24 fps / 16:9 / High Profile 4.1
  202. Audio: English / LPCM Audio / 2.0 / 48 kHz / 1536 kbps / 16-bit
  203.  
  204.  
  205. ********************
  206. PLAYLIST: 00005.MPLS
  207. ********************
  208.  
  209. <--- BEGIN FORUMS PASTE --->
  210. [code]
  211. Total Video
  212. Title Codec Length Movie Size Disc Size Bitrate Bitrate Main Audio Track Secondary Audio Track
  213. ----- ------ ------- -------------- -------------- ------- ------- ------------------ ---------------------
  214. 00005.MPLS AVC 0:01:41 0 20,953,596,399 0.00 0.00 LPCM 2.0 1536Kbps (48kHz/16-bit)
  215. [/code]
  216.  
  217. [code]
  218.  
  219. DISC INFO:
  220.  
  221. Disc Title: Tobruk
  222. Disc Label: p.tobruk.bd.yus
  223. Disc Size: 20,953,596,399 bytes
  224. Protection: AACS
  225. BDInfo: 0.7.5.5
  226.  
  227. PLAYLIST REPORT:
  228.  
  229. Name: 00005.MPLS
  230. Length: 0:01:41.500 (h:m:s.ms)
  231. Size: 0 bytes
  232. Total Bitrate: 0.00 Mbps
  233.  
  234. VIDEO:
  235.  
  236. Codec Bitrate Description
  237. ----- ------- -----------
  238. MPEG-4 AVC Video 0 kbps 1080p / 24 fps / 16:9 / High Profile 4.1
  239.  
  240. AUDIO:
  241.  
  242. Codec Language Bitrate Description
  243. ----- -------- ------- -----------
  244. LPCM Audio English 1536 kbps 2.0 / 48 kHz / 1536 kbps / 16-bit
  245.  
  246. FILES:
  247.  
  248. Name Time In Length Size Total Bitrate
  249. ---- ------- ------ ---- -------------
  250. 00007.M2TS 0:00:00.000 0:01:39.416 0 0
  251. 00001.M2TS 0:01:39.416 0:00:02.083 0 0
  252.  
  253. CHAPTERS:
  254.  
  255. Number Time In Length Avg Video Rate Max 1-Sec Rate Max 1-Sec Time Max 5-Sec Rate Max 5-Sec Time Max 10Sec Rate Max 10Sec Time Avg Frame Size Max Frame Size Max Frame Time
  256. ------ ------- ------ -------------- -------------- -------------- -------------- -------------- -------------- -------------- -------------- -------------- --------------
  257. 1 0:00:00.000 0:00:05.458 0 kbps 0 kbps 00:00:00.000 0 kbps 00:00:00.000 0 kbps 00:00:00.000 0 bytes 0 bytes 00:00:00.000
  258. 2 0:00:05.458 0:00:05.458 0 kbps 0 kbps 00:00:00.000 0 kbps 00:00:00.000 0 kbps 00:00:00.000 0 bytes 0 bytes 00:00:00.000
  259. 3 0:00:10.916 0:00:05.458 0 kbps 0 kbps 00:00:00.000 0 kbps 00:00:00.000 0 kbps 00:00:00.000 0 bytes 0 bytes 00:00:00.000
  260. 4 0:00:16.375 0:00:05.458 0 kbps 0 kbps 00:00:00.000 0 kbps 00:00:00.000 0 kbps 00:00:00.000 0 bytes 0 bytes 00:00:00.000
  261. 5 0:00:21.833 0:00:05.458 0 kbps 0 kbps 00:00:00.000 0 kbps 00:00:00.000 0 kbps 00:00:00.000 0 bytes 0 bytes 00:00:00.000
  262. 6 0:00:27.291 0:00:05.458 0 kbps 0 kbps 00:00:00.000 0 kbps 00:00:00.000 0 kbps 00:00:00.000 0 bytes 0 bytes 00:00:00.000
  263. 7 0:00:32.750 0:00:05.458 0 kbps 0 kbps 00:00:00.000 0 kbps 00:00:00.000 0 kbps 00:00:00.000 0 bytes 0 bytes 00:00:00.000
  264. 8 0:00:38.208 0:00:05.458 0 kbps 0 kbps 00:00:00.000 0 kbps 00:00:00.000 0 kbps 00:00:00.000 0 bytes 0 bytes 00:00:00.000
  265. 9 0:00:43.666 0:00:05.458 0 kbps 0 kbps 00:00:00.000 0 kbps 00:00:00.000 0 kbps 00:00:00.000 0 bytes 0 bytes 00:00:00.000
  266. 10 0:00:49.125 0:00:05.458 0 kbps 0 kbps 00:00:00.000 0 kbps 00:00:00.000 0 kbps 00:00:00.000 0 bytes 0 bytes 00:00:00.000
  267. 11 0:00:54.583 0:00:05.458 0 kbps 0 kbps 00:00:00.000 0 kbps 00:00:00.000 0 kbps 00:00:00.000 0 bytes 0 bytes 00:00:00.000
  268. 12 0:01:00.041 0:00:05.458 0 kbps 0 kbps 00:00:00.000 0 kbps 00:00:00.000 0 kbps 00:00:00.000 0 bytes 0 bytes 00:00:00.000
  269. 13 0:01:05.500 0:00:05.458 0 kbps 0 kbps 00:00:00.000 0 kbps 00:00:00.000 0 kbps 00:00:00.000 0 bytes 0 bytes 00:00:00.000
  270. 14 0:01:10.958 0:00:05.458 0 kbps 0 kbps 00:00:00.000 0 kbps 00:00:00.000 0 kbps 00:00:00.000 0 bytes 0 bytes 00:00:00.000
  271. 15 0:01:16.416 0:00:05.458 0 kbps 0 kbps 00:00:00.000 0 kbps 00:00:00.000 0 kbps 00:00:00.000 0 bytes 0 bytes 00:00:00.000
  272. 16 0:01:21.875 0:00:05.458 0 kbps 0 kbps 00:00:00.000 0 kbps 00:00:00.000 0 kbps 00:00:00.000 0 bytes 0 bytes 00:00:00.000
  273. 17 0:01:27.333 0:00:05.458 0 kbps 0 kbps 00:00:00.000 0 kbps 00:00:00.000 0 kbps 00:00:00.000 0 bytes 0 bytes 00:00:00.000
  274. 18 0:01:32.791 0:00:06.625 0 kbps 0 kbps 00:00:00.000 0 kbps 00:00:00.000 0 kbps 00:00:00.000 0 bytes 0 bytes 00:00:00.000
  275. 19 0:01:39.416 0:00:02.083 0 kbps 0 kbps 00:00:00.000 0 kbps 00:00:00.000 0 kbps 00:00:00.000 0 bytes 0 bytes 00:00:00.000
  276.  
  277. STREAM DIAGNOSTICS:
  278.  
  279. File PID Type Codec Language Seconds Bitrate Bytes Packets
  280. ---- --- ---- ----- -------- -------------- -------------- ------------- -----
  281. 00007.M2TS 4113 (0x1011) 0x1B AVC 0 0 0 0
  282. 00007.M2TS 4352 (0x1100) 0x80 LPCM eng (English) 0 0 0 0
  283. 00001.M2TS 4113 (0x1011) 0x1B AVC 0 0 0 0
  284.  
  285. [/code]
  286. <---- END FORUMS PASTE ---->
  287.  
  288. QUICK SUMMARY:
  289.  
  290. Disc Title: Tobruk
  291. Disc Label: p.tobruk.bd.yus
  292. Disc Size: 20,953,596,399 bytes
  293. Protection: AACS
  294. Playlist: 00005.MPLS
  295. Size: 0 bytes
  296. Length: 0:01:41.500
  297. Total Bitrate: 0.00 Mbps
  298. Video: MPEG-4 AVC Video / 0 kbps / 1080p / 24 fps / 16:9 / High Profile 4.1
  299. Audio: English / LPCM Audio / 2.0 / 48 kHz / 1536 kbps / 16-bit
  300.  
  301.  
Advertisement
Add Comment
Please, Sign In to add comment
Advertisement