G2A Many GEOs
SHARE
TWEET

Untitled

seleZennet Feb 15th, 2020 76 Never
Not a member of Pastebin yet? Sign Up, it unlocks many cool features!
  1. General
  2. Unique ID                   : 276279644750683011420481979829160081903 (0xCFD9862A6F42D9B0E703333445ED79EF)
  3. Complete name               : E:\Video111\The.Perfect.Patient.AKA.Quick.2019.BDRip.720p.seleZen.mkv
  4. Format                      : Matroska
  5. Format version              : Version 4
  6. File size                   : 7.25 GiB
  7. Duration                    : 2 h 11 min
  8. Overall bit rate            : 7 896 kb/s
  9. Movie name                  : The Perfect Patient / Quick (2019) from селезень
  10. Encoded date                : UTC 2020-02-15 21:06:06
  11. Writing application         : mkvmerge v40.0.0 ('Old Town Road + Pony') 64-bit
  12. Writing library             : libebml v1.3.9 + libmatroska v1.5.2
  13.  
  14. Video
  15. ID                          : 1
  16. Format                      : AVC
  17. Format/Info                 : Advanced Video Codec
  18. Format profile              : High@L4.1
  19. Format settings             : CABAC / 13 Ref Frames
  20. Format settings, CABAC      : Yes
  21. Format settings, Reference  : 13 frames
  22. Codec ID                    : V_MPEG4/ISO/AVC
  23. Duration                    : 2 h 11 min
  24. Bit rate                    : 6 876 kb/s
  25. Width                       : 1 280 pixels
  26. Height                      : 480 pixels
  27. Display aspect ratio        : 2.667
  28. Frame rate mode             : Constant
  29. Frame rate                  : 24.000 FPS
  30. Color space                 : YUV
  31. Chroma subsampling          : 4:2:0
  32. Bit depth                   : 8 bits
  33. Scan type                   : Progressive
  34. Bits/(Pixel*Frame)          : 0.466
  35. Stream size                 : 6.30 GiB (87%)
  36. Title                       : Encoded by seleZen
  37. Writing library             : x264 core 142 r2431+42 c69a006 tMod [8-bit@all X86_64]
  38. Encoding settings           : cabac=1 / ref=13 / deblock=1:-2:-2 / analyse=0x3:0x133 / me=umh / subme=10 / psy=1 / fade_compensate=0.00 / psy_rd=1.00:0.00 / mixed_ref=1 / me_range=32 / chroma_me=1 / trellis=2 / 8x8dct=1 / cqm=0 / deadzone=21,11 / fast_pskip=0 / chroma_qp_offset=-2 / threads=24 / lookahead_threads=3 / sliced_threads=0 / nr=0 / decimate=0 / interlaced=0 / bluray_compat=0 / constrained_intra=0 / fgo=0 / bframes=8 / b_pyramid=2 / b_adapt=2 / b_bias=0 / direct=3 / weightb=1 / open_gop=0 / weightp=2 / keyint=240 / keyint_min=24 / scenecut=40 / intra_refresh=0 / rc_lookahead=50 / rc=2pass / mbtree=0 / bitrate=6876 / ratetol=1.0 / qcomp=0.60 / qpmin=0:0:0 / qpmax=51:51:51 / qpstep=4 / cplxblur=20.0 / qblur=0.5 / vbv_maxrate=50000 / vbv_bufsize=62500 / nal_hrd=none / filler=0 / ip_ratio=1.40 / pb_ratio=1.30 / aq=3:0.80 / aq-sensitivity=10.00 / aq-factor=1.00:1.00:1.00 / aq2=0 / aq3=0
  39. Language                    : English
  40. Default                     : Yes
  41. Forced                      : No
  42.  
  43. Audio #1
  44. ID                          : 2
  45. Format                      : AC-3
  46. Format/Info                 : Audio Coding 3
  47. Commercial name             : Dolby Digital
  48. Codec ID                    : A_AC3
  49. Duration                    : 2 h 11 min
  50. Bit rate mode               : Constant
  51. Bit rate                    : 384 kb/s
  52. Channel(s)                  : 6 channels
  53. Channel layout              : L R C LFE Ls Rs
  54. Sampling rate               : 48.0 kHz
  55. Frame rate                  : 31.250 FPS (1536 SPF)
  56. Compression mode            : Lossy
  57. Stream size                 : 361 MiB (5%)
  58. Title                       : iTunes
  59. Language                    : Russian
  60. Service kind                : Complete Main
  61. Default                     : Yes
  62. Forced                      : Yes
  63.  
  64. Audio #2
  65. ID                          : 3
  66. Format                      : AC-3
  67. Format/Info                 : Audio Coding 3
  68. Commercial name             : Dolby Digital
  69. Codec ID                    : A_AC3
  70. Duration                    : 2 h 11 min
  71. Bit rate mode               : Constant
  72. Bit rate                    : 640 kb/s
  73. Channel(s)                  : 6 channels
  74. Channel layout              : L R C LFE Ls Rs
  75. Sampling rate               : 48.0 kHz
  76. Frame rate                  : 31.250 FPS (1536 SPF)
  77. Compression mode            : Lossy
  78. Stream size                 : 601 MiB (8%)
  79. Title                       : Original
  80. Language                    : Swedish
  81. Service kind                : Complete Main
  82. Default                     : No
  83. Forced                      : No
  84.  
  85. Menu
  86. 00:00:00.000                : sv:Глава 01
  87. 00:10:20.292                : sv:Глава 02
  88. 00:20:41.875                : sv:Глава 03
  89. 00:31:10.958                : sv:Глава 04
  90. 00:40:48.333                : sv:Глава 05
  91. 00:51:13.292                : sv:Глава 06
  92. 01:01:44.667                : sv:Глава 07
  93. 01:12:32.417                : sv:Глава 08
  94. 01:23:08.500                : sv:Глава 09
  95. 01:32:45.667                : sv:Глава 10
  96. 01:43:23.417                : sv:Глава 11
  97. 01:53:34.292                : sv:Глава 12
  98. 02:02:59.625                : sv:Глава 13
RAW Paste Data
We use cookies for various purposes including analytics. By continuing to use Pastebin, you agree to our use of cookies as described in the Cookies Policy. OK, I Understand
Top