SHARE
TWEET

Untitled

a guest Jun 10th, 2019 111 Never
Not a member of Pastebin yet? Sign Up, it unlocks many cool features!
  1. General
  2. Unique ID : 284291418890474505978885610220759475943 (0xD5E08920D71015CFB9FCC5CC897AE6E7)
  3. Complete name : ...\[iKaos] DBZ\[iKaos] Dragon Ball Z - S01 (01-39) R2J Dragon Box - Multi-Audio\Dragon Ball Z.S01E06.DVD.DBOXR2J.480p.FLAC.AC3.AAC.x264-iKaos.mkv
  4. Format : Matroska
  5. Format version : Version 4
  6. File size : 1.00 GiB
  7. Duration : 24 min 39 s
  8. Overall bit rate mode : Variable
  9. Overall bit rate : 5 836 kb/s
  10. Encoded date : UTC 2019-06-10 21:37:54
  11. Writing application : mkvmerge v34.0.0 ('Sight and Seen') 64-bit
  12. Writing library : libebml v1.3.7 + libmatroska v1.5.0
  13.  
  14. Video
  15. ID : 1
  16. Format : AVC
  17. Format/Info : Advanced Video Codec
  18. Format profile : High@L4.2
  19. Format settings : CABAC / 5 Ref Frames
  20. Format settings, CABAC : Yes
  21. Format settings, RefFrames : 5 frames
  22. Codec ID : V_MPEG4/ISO/AVC
  23. Duration : 24 min 38 s
  24. Bit rate : 3 761 kb/s
  25. Width : 720 pixels
  26. Height : 480 pixels
  27. Display aspect ratio : 4:3
  28. Frame rate mode : Variable
  29. Frame rate : 23.976 FPS
  30. Color space : YUV
  31. Chroma subsampling : 4:2:0
  32. Bit depth : 8 bits
  33. Scan type : Progressive
  34. Bits/(Pixel*Frame) : 0.454
  35. Stream size : 663 MiB (64%)
  36. Writing library : x264 core 157 r2935 545de2f
  37. Encoding settings : cabac=1 / ref=5 / deblock=1:-1:-1 / analyse=0x3:0x113 / me=hex / subme=8 / psy=1 / psy_rd=1.00:0.15 / mixed_ref=1 / me_range=16 / chroma_me=1 / trellis=2 / 8x8dct=1 / cqm=0 / deadzone=21,11 / fast_pskip=1 / chroma_qp_offset=-3 / threads=12 / lookahead_threads=2 / sliced_threads=0 / nr=0 / decimate=1 / interlaced=0 / bluray_compat=0 / constrained_intra=0 / bframes=3 / b_pyramid=2 / b_adapt=1 / b_bias=0 / direct=3 / weightb=1 / open_gop=0 / weightp=2 / keyint=600 / keyint_min=60 / scenecut=40 / intra_refresh=0 / rc_lookahead=50 / rc=crf / mbtree=1 / crf=18.0 / qcomp=0.60 / qpmin=0 / qpmax=69 / qpstep=4 / vbv_maxrate=62500 / vbv_bufsize=78125 / crf_max=0.0 / nal_hrd=none / filler=0 / ip_ratio=1.40 / aq=1:1.00
  38. Default : Yes
  39. Forced : No
  40. Color range : Limited
  41. Color primaries : BT.601 NTSC
  42. Transfer characteristics : BT.709
  43. Matrix coefficients : BT.601
  44.  
  45. Audio #1
  46. ID : 2
  47. Format : FLAC
  48. Format/Info : Free Lossless Audio Codec
  49. Codec ID : A_FLAC
  50. Duration : 24 min 39 s
  51. Bit rate mode : Variable
  52. Bit rate : 359 kb/s
  53. Channel(s) : 1 channel
  54. Channel layout : C
  55. Sampling rate : 48.0 kHz
  56. Frame rate : 11.719 FPS (4096 SPF)
  57. Bit depth : 16 bits
  58. Compression mode : Lossless
  59. Stream size : 63.4 MiB (6%)
  60. Title : 1989 Mono Tokai Broadcast Audio [iKaos/AnimeMaakuo/Kei17] - FLAC
  61. Writing library : libFLAC 1.3.1 (UTC 2014-11-25)
  62. Language : Japanese
  63. Default : Yes
  64. Forced : No
  65.  
  66. Audio #2
  67. ID : 3
  68. Format : AC-3
  69. Format/Info : Audio Coding 3
  70. Commercial name : Dolby Digital
  71. Codec ID : A_AC3
  72. Duration : 24 min 38 s
  73. Bit rate mode : Constant
  74. Bit rate : 384 kb/s
  75. Channel(s) : 6 channels
  76. Channel layout : L R C LFE Ls Rs
  77. Sampling rate : 48.0 kHz
  78. Frame rate : 31.250 FPS (1536 SPF)
  79. Bit depth : 16 bits
  80. Compression mode : Lossy
  81. Stream size : 67.7 MiB (7%)
  82. Title : 2007 5.1 FUNi Remastered Dub (Kikuchi Score) - AC3
  83. Language : English
  84. Service kind : Complete Main
  85. Default : No
  86. Forced : No
  87.  
  88. Audio #3
  89. ID : 4
  90. Format : AAC LC
  91. Format/Info : Advanced Audio Codec Low Complexity
  92. Codec ID : A_AAC-2
  93. Duration : 24 min 39 s
  94. Bit rate : 192 kb/s
  95. Channel(s) : 2 channels
  96. Channel layout : L R
  97. Sampling rate : 48.0 kHz
  98. Frame rate : 46.875 FPS (1024 SPF)
  99. Compression mode : Lossy
  100. Stream size : 33.4 MiB (3%)
  101. Title : 2013 2.0 FUNi Remastered Dub (Johnson Score) - AAC
  102. Language : English
  103. Default : No
  104. Forced : No
  105.  
  106. Audio #4
  107. ID : 5
  108. Format : AAC LC
  109. Format/Info : Advanced Audio Codec Low Complexity
  110. Codec ID : A_AAC-2
  111. Duration : 24 min 11 s
  112. Bit rate : 445 kb/s
  113. Channel(s) : 6 channels
  114. Channel layout : C L R Ls Rs LFE
  115. Sampling rate : 48.0 kHz
  116. Frame rate : 46.875 FPS (1024 SPF)
  117. Compression mode : Lossy
  118. Stream size : 77.1 MiB (7%)
  119. Title : 2005 5.1 FUNi UUE Dub [iKaos] - AAC
  120. Language : English
  121. Default : No
  122. Forced : No
  123.  
  124. Audio #5
  125. ID : 6
  126. Format : AAC LC
  127. Format/Info : Advanced Audio Codec Low Complexity
  128. Codec ID : A_AAC-2
  129. Duration : 24 min 39 s
  130. Bit rate : 253 kb/s
  131. Channel(s) : 2 channels
  132. Channel layout : L R
  133. Sampling rate : 48.0 kHz
  134. Frame rate : 46.875 FPS (1024 SPF)
  135. Compression mode : Lossy
  136. Stream size : 44.7 MiB (4%)
  137. Title : 1996 2.0 Saban/Ocean Dub [iKaos] - AAC
  138. Language : English
  139. Default : No
  140. Forced : No
  141.  
  142. Audio #6
  143. ID : 7
  144. Format : AC-3
  145. Format/Info : Audio Coding 3
  146. Commercial name : Dolby Digital
  147. Codec ID : A_AC3
  148. Duration : 24 min 38 s
  149. Bit rate mode : Constant
  150. Bit rate : 448 kb/s
  151. Channel(s) : 2 channels
  152. Channel layout : L R
  153. Sampling rate : 48.0 kHz
  154. Frame rate : 31.250 FPS (1536 SPF)
  155. Bit depth : 16 bits
  156. Compression mode : Lossy
  157. Stream size : 79.0 MiB (8%)
  158. Title : 1989 2.0 R2J Dragon Box - AC3
  159. Language : Japanese
  160. Service kind : Complete Main
  161. Default : No
  162. Forced : No
  163.  
  164. Text #1
  165. ID : 8
  166. Format : ASS
  167. Codec ID : S_TEXT/ASS
  168. Codec ID/Info : Advanced Sub Station Alpha
  169. Duration : 24 min 25 s
  170. Bit rate : 240 b/s
  171. Count of elements : 491
  172. Compression mode : Lossless
  173. Stream size : 42.9 KiB (0%)
  174. Title : Subtitles - SSA
  175. Language : English
  176. Default : Yes
  177. Forced : No
  178.  
  179. Text #2
  180. ID : 9
  181. Format : VobSub
  182. Muxing mode : zlib
  183. Codec ID : S_VOBSUB
  184. Codec ID/Info : Picture based subtitle format used on DVDs
  185. Duration : 24 min 25 s
  186. Bit rate : 925 b/s
  187. Count of elements : 37
  188. Stream size : 166 KiB (0%)
  189. Title : Signs
  190. Language : English
  191. Default : No
  192. Forced : No
  193.  
  194. Menu
  195. 00:00:00.000 : en:Opening
  196. 00:01:49.109 : en:Prologue
  197. 00:02:55.801 : en:Part A
  198. 00:12:22.575 : en:Part B
  199. 00:22:31.851 : en:Ending
  200. 00:24:07.947 : en:Next Episode Preview
RAW Paste Data
We use cookies for various purposes including analytics. By continuing to use Pastebin, you agree to our use of cookies as described in the Cookies Policy. OK, I Understand
 
Top