Guest User

Hitman.2007.Unrated.1080p.BluRay.REMUX.AVC.DTS-HD.MA.5.1-EPSiLON

a guest
May 18th, 2019
67
Never
Not a member of Pastebin yet? Sign Up, it unlocks many cool features!
  1. General
  2. Complete name                            : Hitman.2007.Unrated.1080p.BluRay.REMUX.AVC.DTS-HD.MA.5.1-EPSiLON.mkv
  3. Format                                   : Matroska
  4. Format version                           : Version 4
  5. File size                                : 13.9 GiB
  6. Duration                                 : 1 h 34 min
  7. Overall bit rate mode                    : Variable
  8. Overall bit rate                         : 21.1 Mb/s
  9. Encoded date                             : UTC 2019-01-15 10:53:41
  10. Writing application                      : mkvmerge v28.2.0 ('The Awakening') 64-bit
  11. Writing library                          : libebml v1.3.6 + libmatroska v1.4.9
  12.  
  13. Video
  14. ID                                       : 1
  15. Format                                   : AVC
  16. Format/Info                              : Advanced Video Codec
  17. Format profile                           : High@L4.1
  18. Format settings                          : CABAC / 2 Ref Frames
  19. Format settings, CABAC                   : Yes
  20. Format settings, Reference frames        : 2 frames
  21. Codec ID                                 : V_MPEG4/ISO/AVC
  22. Duration                                 : 1 h 34 min
  23. Bit rate mode                            : Variable
  24. Bit rate                                 : 16.0 Mb/s
  25. Width                                    : 1 920 pixels
  26. Height                                   : 1 080 pixels
  27. Display aspect ratio                     : 16:9
  28. Frame rate mode                          : Constant
  29. Frame rate                               : 23.976 (24000/1001) FPS
  30. Color space                              : YUV
  31. Chroma subsampling                       : 4:2:0
  32. Bit depth                                : 8 bits
  33. Scan type                                : Progressive
  34. Bits/(Pixel*Frame)                       : 0.321
  35. Stream size                              : 10.5 GiB (76%)
  36. Title                                    : MPEG-4 AVC Video / 15970 kbps / 1080p / 23.976 fps / 16:9 / High Profile 4.1
  37. Language                                 : English
  38. Default                                  : Yes
  39. Forced                                   : No
  40.  
  41. Audio
  42. ID                                       : 2
  43. Format                                   : DTS XLL
  44. Format/Info                              : Digital Theater Systems
  45. Commercial name                          : DTS-HD Master Audio
  46. Codec ID                                 : A_DTS
  47. Duration                                 : 1 h 34 min
  48. Bit rate mode                            : Variable
  49. Bit rate                                 : 4 351 kb/s
  50. Channel(s)                               : 6 channels
  51. Channel layout                           : C L R Ls Rs LFE
  52. Sampling rate                            : 48.0 kHz
  53. Frame rate                               : 93.750 FPS (512 SPF)
  54. Bit depth                                : 24 bits
  55. Compression mode                         : Lossless
  56. Stream size                              : 2.86 GiB (21%)
  57. Title                                    : DTS-HD Master Audio / 5.1 / 48 kHz / 4351 kbps / 24-bit
  58. Language                                 : English
  59. Default                                  : Yes
  60. Forced                                   : No
  61.  
  62. Text #1
  63. ID                                       : 3
  64. Format                                   : PGS
  65. Codec ID                                 : S_HDMV/PGS
  66. Codec ID/Info                            : Picture based subtitle format used on BDs/HD-DVDs
  67. Duration                                 : 1 h 8 min
  68. Bit rate                                 : 1 435 b/s
  69. Count of elements                        : 52
  70. Stream size                              : 726 KiB (0%)
  71. Title                                    : forced for foreign parts
  72. Language                                 : English
  73. Default                                  : Yes
  74. Forced                                   : No
  75.  
  76. Text #2
  77. ID                                       : 4
  78. Format                                   : PGS
  79. Codec ID                                 : S_HDMV/PGS
  80. Codec ID/Info                            : Picture based subtitle format used on BDs/HD-DVDs
  81. Duration                                 : 1 h 26 min
  82. Bit rate                                 : 29.2 kb/s
  83. Count of elements                        : 1274
  84. Stream size                              : 18.0 MiB (0%)
  85. Language                                 : English
  86. Default                                  : No
  87. Forced                                   : No
  88.  
  89. Text #3
  90. ID                                       : 5
  91. Format                                   : PGS
  92. Codec ID                                 : S_HDMV/PGS
  93. Codec ID/Info                            : Picture based subtitle format used on BDs/HD-DVDs
  94. Duration                                 : 1 h 29 min
  95. Bit rate                                 : 30.2 kb/s
  96. Count of elements                        : 1432
  97. Stream size                              : 19.4 MiB (0%)
  98. Title                                    : SDH
  99. Language                                 : English
  100. Default                                  : No
  101. Forced                                   : No
  102.  
  103. Text #4
  104. ID                                       : 6
  105. Format                                   : PGS
  106. Codec ID                                 : S_HDMV/PGS
  107. Codec ID/Info                            : Picture based subtitle format used on BDs/HD-DVDs
  108. Duration                                 : 1 h 27 min
  109. Bit rate                                 : 19.7 kb/s
  110. Count of elements                        : 1290
  111. Stream size                              : 12.4 MiB (0%)
  112. Language                                 : Arabic
  113. Default                                  : No
  114. Forced                                   : No
  115.  
  116. Text #5
  117. ID                                       : 7
  118. Format                                   : PGS
  119. Codec ID                                 : S_HDMV/PGS
  120. Codec ID/Info                            : Picture based subtitle format used on BDs/HD-DVDs
  121. Duration                                 : 1 h 27 min
  122. Bit rate                                 : 25.7 kb/s
  123. Count of elements                        : 1290
  124. Stream size                              : 16.1 MiB (0%)
  125. Language                                 : Bulgarian
  126. Default                                  : No
  127. Forced                                   : No
  128.  
  129. Text #6
  130. ID                                       : 8
  131. Format                                   : PGS
  132. Codec ID                                 : S_HDMV/PGS
  133. Codec ID/Info                            : Picture based subtitle format used on BDs/HD-DVDs
  134. Duration                                 : 1 h 29 min
  135. Bit rate                                 : 21.9 kb/s
  136. Count of elements                        : 1210
  137. Stream size                              : 14.0 MiB (0%)
  138. Title                                    : Cantonese
  139. Language                                 : Chinese
  140. Default                                  : No
  141. Forced                                   : No
  142.  
  143. Text #7
  144. ID                                       : 9
  145. Format                                   : PGS
  146. Codec ID                                 : S_HDMV/PGS
  147. Codec ID/Info                            : Picture based subtitle format used on BDs/HD-DVDs
  148. Duration                                 : 1 h 29 min
  149. Bit rate                                 : 22.6 kb/s
  150. Count of elements                        : 1210
  151. Stream size                              : 14.5 MiB (0%)
  152. Title                                    : Mandarin Traditional
  153. Language                                 : Chinese
  154. Default                                  : No
  155. Forced                                   : No
  156.  
  157. Text #8
  158. ID                                       : 10
  159. Format                                   : PGS
  160. Codec ID                                 : S_HDMV/PGS
  161. Codec ID/Info                            : Picture based subtitle format used on BDs/HD-DVDs
  162. Duration                                 : 1 h 27 min
  163. Bit rate                                 : 24.7 kb/s
  164. Count of elements                        : 1290
  165. Stream size                              : 15.6 MiB (0%)
  166. Language                                 : Croatian
  167. Default                                  : No
  168. Forced                                   : No
  169.  
  170. Text #9
  171. ID                                       : 11
  172. Format                                   : PGS
  173. Codec ID                                 : S_HDMV/PGS
  174. Codec ID/Info                            : Picture based subtitle format used on BDs/HD-DVDs
  175. Duration                                 : 1 h 27 min
  176. Bit rate                                 : 23.7 kb/s
  177. Count of elements                        : 1290
  178. Stream size                              : 14.9 MiB (0%)
  179. Language                                 : Czech
  180. Default                                  : No
  181. Forced                                   : No
  182.  
  183. Text #10
  184. ID                                       : 12
  185. Format                                   : PGS
  186. Codec ID                                 : S_HDMV/PGS
  187. Codec ID/Info                            : Picture based subtitle format used on BDs/HD-DVDs
  188. Duration                                 : 1 h 27 min
  189. Bit rate                                 : 28.0 kb/s
  190. Count of elements                        : 1281
  191. Stream size                              : 17.6 MiB (0%)
  192. Language                                 : Danish
  193. Default                                  : No
  194. Forced                                   : No
  195.  
  196. Text #11
  197. ID                                       : 13
  198. Format                                   : PGS
  199. Codec ID                                 : S_HDMV/PGS
  200. Codec ID/Info                            : Picture based subtitle format used on BDs/HD-DVDs
  201. Duration                                 : 1 h 26 min
  202. Bit rate                                 : 26.4 kb/s
  203. Count of elements                        : 1215
  204. Stream size                              : 16.3 MiB (0%)
  205. Language                                 : Dutch
  206. Default                                  : No
  207. Forced                                   : No
  208.  
  209. Text #12
  210. ID                                       : 14
  211. Format                                   : PGS
  212. Codec ID                                 : S_HDMV/PGS
  213. Codec ID/Info                            : Picture based subtitle format used on BDs/HD-DVDs
  214. Duration                                 : 1 h 27 min
  215. Bit rate                                 : 27.3 kb/s
  216. Count of elements                        : 1290
  217. Stream size                              : 17.1 MiB (0%)
  218. Language                                 : Estonian
  219. Default                                  : No
  220. Forced                                   : No
  221.  
  222. Text #13
  223. ID                                       : 15
  224. Format                                   : PGS
  225. Codec ID                                 : S_HDMV/PGS
  226. Codec ID/Info                            : Picture based subtitle format used on BDs/HD-DVDs
  227. Duration                                 : 1 h 27 min
  228. Bit rate                                 : 22.5 kb/s
  229. Count of elements                        : 1289
  230. Stream size                              : 14.2 MiB (0%)
  231. Language                                 : Finnish
  232. Default                                  : No
  233. Forced                                   : No
  234.  
  235. Text #14
  236. ID                                       : 16
  237. Format                                   : PGS
  238. Codec ID                                 : S_HDMV/PGS
  239. Codec ID/Info                            : Picture based subtitle format used on BDs/HD-DVDs
  240. Duration                                 : 1 h 31 min
  241. Bit rate                                 : 26.9 kb/s
  242. Count of elements                        : 1289
  243. Stream size                              : 17.6 MiB (0%)
  244. Language                                 : French
  245. Default                                  : No
  246. Forced                                   : No
  247.  
  248. Text #15
  249. ID                                       : 17
  250. Format                                   : PGS
  251. Codec ID                                 : S_HDMV/PGS
  252. Codec ID/Info                            : Picture based subtitle format used on BDs/HD-DVDs
  253. Duration                                 : 1 h 27 min
  254. Bit rate                                 : 32.0 kb/s
  255. Count of elements                        : 1283
  256. Stream size                              : 20.1 MiB (0%)
  257. Language                                 : German
  258. Default                                  : No
  259. Forced                                   : No
  260.  
  261. Text #16
  262. ID                                       : 18
  263. Format                                   : PGS
  264. Codec ID                                 : S_HDMV/PGS
  265. Codec ID/Info                            : Picture based subtitle format used on BDs/HD-DVDs
  266. Duration                                 : 1 h 27 min
  267. Bit rate                                 : 27.8 kb/s
  268. Count of elements                        : 1290
  269. Stream size                              : 17.5 MiB (0%)
  270. Language                                 : Greek
  271. Default                                  : No
  272. Forced                                   : No
  273.  
  274. Text #17
  275. ID                                       : 19
  276. Format                                   : PGS
  277. Codec ID                                 : S_HDMV/PGS
  278. Codec ID/Info                            : Picture based subtitle format used on BDs/HD-DVDs
  279. Duration                                 : 1 h 27 min
  280. Bit rate                                 : 23.0 kb/s
  281. Count of elements                        : 1290
  282. Stream size                              : 14.5 MiB (0%)
  283. Language                                 : Hebrew
  284. Default                                  : No
  285. Forced                                   : No
  286.  
  287. Text #18
  288. ID                                       : 20
  289. Format                                   : PGS
  290. Codec ID                                 : S_HDMV/PGS
  291. Codec ID/Info                            : Picture based subtitle format used on BDs/HD-DVDs
  292. Duration                                 : 1 h 27 min
  293. Bit rate                                 : 27.6 kb/s
  294. Count of elements                        : 1288
  295. Stream size                              : 17.4 MiB (0%)
  296. Language                                 : Hungarian
  297. Default                                  : No
  298. Forced                                   : No
  299.  
  300. Text #19
  301. ID                                       : 21
  302. Format                                   : PGS
  303. Codec ID                                 : S_HDMV/PGS
  304. Codec ID/Info                            : Picture based subtitle format used on BDs/HD-DVDs
  305. Duration                                 : 1 h 27 min
  306. Bit rate                                 : 29.1 kb/s
  307. Count of elements                        : 1290
  308. Stream size                              : 18.3 MiB (0%)
  309. Language                                 : Icelandic
  310. Default                                  : No
  311. Forced                                   : No
  312.  
  313. Text #20
  314. ID                                       : 22
  315. Format                                   : PGS
  316. Codec ID                                 : S_HDMV/PGS
  317. Codec ID/Info                            : Picture based subtitle format used on BDs/HD-DVDs
  318. Duration                                 : 1 h 27 min
  319. Bit rate                                 : 28.8 kb/s
  320. Count of elements                        : 1288
  321. Stream size                              : 18.1 MiB (0%)
  322. Language                                 : Italian
  323. Default                                  : No
  324. Forced                                   : No
  325.  
  326. Text #21
  327. ID                                       : 23
  328. Format                                   : PGS
  329. Codec ID                                 : S_HDMV/PGS
  330. Codec ID/Info                            : Picture based subtitle format used on BDs/HD-DVDs
  331. Duration                                 : 1 h 27 min
  332. Bit rate                                 : 26.8 kb/s
  333. Count of elements                        : 1290
  334. Stream size                              : 16.9 MiB (0%)
  335. Language                                 : Latvian
  336. Default                                  : No
  337. Forced                                   : No
  338.  
  339. Text #22
  340. ID                                       : 24
  341. Format                                   : PGS
  342. Codec ID                                 : S_HDMV/PGS
  343. Codec ID/Info                            : Picture based subtitle format used on BDs/HD-DVDs
  344. Duration                                 : 1 h 27 min
  345. Bit rate                                 : 27.0 kb/s
  346. Count of elements                        : 1290
  347. Stream size                              : 17.0 MiB (0%)
  348. Language                                 : Lithuanian
  349. Default                                  : No
  350. Forced                                   : No
  351.  
  352. Text #23
  353. ID                                       : 25
  354. Format                                   : PGS
  355. Codec ID                                 : S_HDMV/PGS
  356. Codec ID/Info                            : Picture based subtitle format used on BDs/HD-DVDs
  357. Duration                                 : 1 h 27 min
  358. Bit rate                                 : 25.6 kb/s
  359. Count of elements                        : 1285
  360. Stream size                              : 16.1 MiB (0%)
  361. Language                                 : Norwegian
  362. Default                                  : No
  363. Forced                                   : No
  364.  
  365. Text #24
  366. ID                                       : 26
  367. Format                                   : PGS
  368. Codec ID                                 : S_HDMV/PGS
  369. Codec ID/Info                            : Picture based subtitle format used on BDs/HD-DVDs
  370. Duration                                 : 1 h 27 min
  371. Bit rate                                 : 25.9 kb/s
  372. Count of elements                        : 1290
  373. Stream size                              : 16.3 MiB (0%)
  374. Language                                 : Polish
  375. Default                                  : No
  376. Forced                                   : No
  377.  
  378. Text #25
  379. ID                                       : 27
  380. Format                                   : PGS
  381. Codec ID                                 : S_HDMV/PGS
  382. Codec ID/Info                            : Picture based subtitle format used on BDs/HD-DVDs
  383. Duration                                 : 1 h 27 min
  384. Bit rate                                 : 30.1 kb/s
  385. Count of elements                        : 1290
  386. Stream size                              : 18.9 MiB (0%)
  387. Title                                    : Brazillian
  388. Language                                 : Portuguese
  389. Default                                  : No
  390. Forced                                   : No
  391.  
  392. Text #26
  393. ID                                       : 28
  394. Format                                   : PGS
  395. Codec ID                                 : S_HDMV/PGS
  396. Codec ID/Info                            : Picture based subtitle format used on BDs/HD-DVDs
  397. Duration                                 : 1 h 27 min
  398. Bit rate                                 : 25.6 kb/s
  399. Count of elements                        : 1290
  400. Stream size                              : 16.1 MiB (0%)
  401. Language                                 : Romanian
  402. Default                                  : No
  403. Forced                                   : No
  404.  
  405. Text #27
  406. ID                                       : 29
  407. Format                                   : PGS
  408. Codec ID                                 : S_HDMV/PGS
  409. Codec ID/Info                            : Picture based subtitle format used on BDs/HD-DVDs
  410. Duration                                 : 1 h 27 min
  411. Bit rate                                 : 26.8 kb/s
  412. Count of elements                        : 1290
  413. Stream size                              : 16.8 MiB (0%)
  414. Language                                 : Russian
  415. Default                                  : No
  416. Forced                                   : No
  417.  
  418. Text #28
  419. ID                                       : 30
  420. Format                                   : PGS
  421. Codec ID                                 : S_HDMV/PGS
  422. Codec ID/Info                            : Picture based subtitle format used on BDs/HD-DVDs
  423. Duration                                 : 1 h 27 min
  424. Bit rate                                 : 25.3 kb/s
  425. Count of elements                        : 1290
  426. Stream size                              : 15.9 MiB (0%)
  427. Language                                 : Serbian
  428. Default                                  : No
  429. Forced                                   : No
  430.  
  431. Text #29
  432. ID                                       : 31
  433. Format                                   : PGS
  434. Codec ID                                 : S_HDMV/PGS
  435. Codec ID/Info                            : Picture based subtitle format used on BDs/HD-DVDs
  436. Duration                                 : 1 h 27 min
  437. Bit rate                                 : 24.3 kb/s
  438. Count of elements                        : 1288
  439. Stream size                              : 15.3 MiB (0%)
  440. Language                                 : Slovenian
  441. Default                                  : No
  442. Forced                                   : No
  443.  
  444. Text #30
  445. ID                                       : 32
  446. Format                                   : PGS
  447. Codec ID                                 : S_HDMV/PGS
  448. Codec ID/Info                            : Picture based subtitle format used on BDs/HD-DVDs
  449. Duration                                 : 1 h 27 min
  450. Bit rate                                 : 28.0 kb/s
  451. Count of elements                        : 1280
  452. Stream size                              : 17.4 MiB (0%)
  453. Title                                    : Latin American
  454. Language                                 : Spanish
  455. Default                                  : No
  456. Forced                                   : No
  457.  
  458. Text #31
  459. ID                                       : 33
  460. Format                                   : PGS
  461. Codec ID                                 : S_HDMV/PGS
  462. Codec ID/Info                            : Picture based subtitle format used on BDs/HD-DVDs
  463. Duration                                 : 1 h 27 min
  464. Bit rate                                 : 23.1 kb/s
  465. Count of elements                        : 1167
  466. Stream size                              : 14.5 MiB (0%)
  467. Language                                 : Swedish
  468. Default                                  : No
  469. Forced                                   : No
  470.  
  471. Text #32
  472. ID                                       : 34
  473. Format                                   : PGS
  474. Codec ID                                 : S_HDMV/PGS
  475. Codec ID/Info                            : Picture based subtitle format used on BDs/HD-DVDs
  476. Duration                                 : 1 h 27 min
  477. Bit rate                                 : 28.1 kb/s
  478. Count of elements                        : 1290
  479. Stream size                              : 17.7 MiB (0%)
  480. Language                                 : Turkish
  481. Default                                  : No
  482. Forced                                   : No
  483.  
  484. Text #33
  485. ID                                       : 35
  486. Format                                   : PGS
  487. Codec ID                                 : S_HDMV/PGS
  488. Codec ID/Info                            : Picture based subtitle format used on BDs/HD-DVDs
  489. Duration                                 : 1 h 27 min
  490. Bit rate                                 : 27.3 kb/s
  491. Count of elements                        : 1290
  492. Stream size                              : 17.1 MiB (0%)
  493. Language                                 : Ukrainian
  494. Default                                  : No
  495. Forced                                   : No
  496.  
  497. Menu
  498. 00:00:00.000                             : en:Main Titles
  499. 00:02:57.051                             : en:One Question
  500. 00:05:03.511                             : en:The Very Best
  501. 00:08:14.452                             : en:Going Public
  502. 00:13:34.063                             : en:Eyewitness
  503. 00:17:43.854                             : en:Storming the Hotel
  504. 00:24:15.287                             : en:My Boy Doesn't Miss
  505. 00:26:24.249                             : en:As Good As Dead
  506. 00:30:19.359                             : en:The Train Station
  507. 00:35:43.599                             : en:Dying with Dignity
  508. 00:43:28.147                             : en:No More Interference
  509. 00:46:47.888                             : en:A Royal Mess
  510. 00:48:53.764                             : en:Thrown to the Wolves
  511. 00:51:02.684                             : en:Istanbul
  512. 00:54:48.201                             : en:Dinner at Eight
  513. 00:58:59.702                             : en:Mr. Price
  514. 01:04:04.340                             : en:Road Trip
  515. 01:06:25.481                             : en:The Key
  516. 01:09:41.010                             : en:Bait
  517. 01:12:52.242                             : en:Just a Bureaucrat
  518. 01:15:32.236                             : en:A Brother's Funeral
  519. 01:24:32.400                             : en:Knowing How It Ends
  520. 01:27:49.681                             : en:A Good Man?
  521. 01:30:24.043                             : en:End Titles
RAW Paste Data