daily pastebin goal
56%
SHARE
TWEET

Patriots_Day_4k

iMN0 Jun 14th, 2017 134 Never
Not a member of Pastebin yet? Sign Up, it unlocks many cool features!
  1. General
  2. Complete name : Patriots.Day.2016.2160p.4K.UHD.10bit.HDR.BluRay.7.1.x265.HEVC-MZABI.mkv
  3. Format : Matroska
  4. Format version : Version 4 / Version 2
  5. File size : 11.5 GiB
  6. Duration : 2 h 13 min
  7. Overall bit rate : 12.3 Mb/s
  8. Encoded date : UTC 2017-06-13 02:08:50
  9. Writing application : mkvmerge v9.6.0 ('Slave To Your Mind') 64bit
  10. Writing library : libebml v1.3.4 + libmatroska v1.4.5
  11.  
  12. Video
  13. ID : 1
  14. Format : HEVC
  15. Format/Info : High Efficiency Video Coding
  16. Format profile : Main 10@L5@Main
  17. Codec ID : V_MPEGH/ISO/HEVC
  18. Duration : 2 h 13 min
  19. Bit rate : 12.0 Mb/s
  20. Width : 3 840 pixels
  21. Height : 1 600 pixels
  22. Display aspect ratio : 2.40:1
  23. Frame rate mode : Constant
  24. Frame rate : 23.976 (24000/1001) FPS
  25. Original frame rate : 23.976 (23976/1000) FPS
  26. Color space : YUV
  27. Chroma subsampling : 4:2:0
  28. Bit depth : 10 bits
  29. Bits/(Pixel*Frame) : 0.081
  30. Stream size : 11.2 GiB (97%)
  31. Title : HEVC x265 10bit HDR BT2020 Video / 8000 kbps / 2160p / 23.976 fps / Main 10 Profile 5
  32. Writing library : x265 1.9:[Linux][GCC 4.6.2][64 bit] 10bit
  33. Encoding settings : wpp / ctu=64 / min-cu-size=8 / max-tu-size=32 / tu-intra-depth=1 / tu-inter-depth=1 / me=1 / subme=2 / merange=57 / no-rect / no-amp / max-merge=2 / temporal-mvp / no-early-skip / rdpenalty=0 / no-tskip / no-tskip-fast / strong-intra-smoothing / no-lossless / no-cu-lossless / no-constrained-intra / fast-intra / no-open-gop / no-temporal-layers / interlace=0 / keyint=250 / min-keyint=23 / scenecut=0 / rc-lookahead=15 / lookahead-slices=8 / bframes=4 / bframe-bias=0 / b-adapt=2 / ref=3 / limit-refs=3 / no-limit-modes / weightp / no-weightb / aq-mode=1 / qg-size=32 / aq-strength=1.00 / cbqpoffs=0 / crqpoffs=0 / rd=2 / psy-rd=2.00 / rdoq-level=0 / psy-rdoq=0.00 / signhide / deblock / sao / no-sao-non-deblock / b-pyramid / cutree / no-intra-refresh / rc=2 / pass / bitrate=12000 / qcomp=0.60 / qpmin=0 / qpmax=51 / qpstep=4 / cplxblur=20.0 / qblur=0.5 / ipratio=1.40 / pbratio=1.30
  34. Default : Yes
  35. Forced : No
  36. Color range : Limited
  37. Color primaries : BT.2020
  38. Transfer characteristics : SMPTE ST 2084
  39. Matrix coefficients : BT.2020 non-constant
  40.  
  41. Audio
  42. ID : 2
  43. Format : AAC
  44. Format/Info : Advanced Audio Codec
  45. Format profile : LC
  46. Codec ID : A_AAC
  47. Duration : 2 h 13 min
  48. Bit rate : 305 kb/s
  49. Channel(s) : 7 channels
  50. Channel(s)_Original : 8 channels
  51. Channel positions : Front: L C R, Side: L R, Back: L R, LFE
  52. Sampling rate : 48.0 kHz
  53. Frame rate : 46.875 FPS (1024 spf)
  54. Compression mode : Lossy
  55. Delay relative to video : 9 ms
  56. Stream size : 290 MiB (2%)
  57. Title : LC-AAC / 7.1 / 48 kHz
  58. Language : English
  59. Default : No
  60. Forced : No
  61.  
  62. Text #1
  63. ID : 3
  64. Format : PGS
  65. Muxing mode : zlib
  66. Codec ID : S_HDMV/PGS
  67. Codec ID/Info : Picture based subtitle format used on BDs/HD-DVDs
  68. Duration : 2 h 12 min
  69. Bit rate : 20.8 kb/s
  70. Count of elements : 4050
  71. Stream size : 19.7 MiB (0%)
  72. Language : English
  73. Default : No
  74. Forced : No
  75.  
  76. Text #2
  77. ID : 4
  78. Format : UTF-8
  79. Codec ID : S_TEXT/UTF8
  80. Codec ID/Info : UTF-8 Plain Text
  81. Duration : 2 h 3 min
  82. Bit rate : 117 b/s
  83. Count of elements : 1968
  84. Stream size : 107 KiB (0%)
  85. Language : Arabic
  86. Default : No
  87. Forced : No
  88.  
  89. Menu
  90. 00:00:00.000 : en:00:00:00.000
  91. 00:08:30.510 : en:00:08:30.510
  92. 00:17:48.067 : en:00:17:48.067
  93. 00:24:56.328 : en:00:24:56.328
  94. 00:32:35.954 : en:00:32:35.954
  95. 00:41:44.502 : en:00:41:44.502
  96. 00:49:23.002 : en:00:49:23.002
  97. 00:58:35.512 : en:00:58:35.512
  98. 01:07:10.026 : en:01:07:10.026
  99. 01:19:05.157 : en:01:19:05.157
  100. 01:24:20.055 : en:01:24:20.055
  101. 01:33:48.623 : en:01:33:48.623
  102. 01:45:17.311 : en:01:45:17.311
  103. 01:50:24.618 : en:01:50:24.618
  104. 01:57:57.070 : en:01:57:57.070
  105. 02:05:25.518 : en:02:05:25.518
RAW Paste Data
We use cookies for various purposes including analytics. By continuing to use Pastebin, you agree to our use of cookies as described in the Cookies Policy. OK, I Understand
 
Top